Вход на сайт

Имя:
Пароль:

· Забыли пароль?
logo
Портал Форум
Регистрация Вход


new_topic  reply_topic

  (House, Pop) Various - Танцевальный рай 23 2009, FLAC (image + .cue)

pic
Год выпуска: 2009
Страна: Россия
Жанр: House, Pop
Номер #: ТР-737 (Танцевальный рай)
Продолжительность: 01:17:44

Тип издания: сборник
Аудио кодек: FLAC
Тип рипа: (image + .cue)
Битрейт аудио: lossless


Трэклист:

01. Aysel & Arash - Always
02. Whizzkids feat. Inusa Dawuda - Rumours (Digi, Digi)
03. Lada Gaga - Poker Face (Jody Den Broeder Edit)
04. Alesha Dixon - The Boy Does Nothing
05. Arash feat. Helena - Pure Love
06. Britney Spears - If U Seek Amy
07. Darusa & Finlay - Do It All Night
08. Sunrider - Fable
09. Ian Carey - Redlight
10. Marius feat. Giulia - Rain
11. Akon - Beautiful
12. Dr. Kucho - Holy Sprit" (Old School Radio Mix)
13. Rico Bernasconi - Love Deep Inside (Sceen Mix)
14. Pakito - Electro Music (Original Radio Edit)
15. Michael Mind - Love's Gonna Get You
16. Bob Sinclar feat. Master Gee and Wonder Mike - Lala Song (Tocadisco Remix)
17. Glamrock Brothers - Ma Baker (Michael Mind Remix Edit)
18. Venus Kaly - Life (In Da Mix Edit)
19. Mattara feat. Winston - Dreams Of My Life (Andrea T Mendoza vs. Mattara Radio Mix)
20. Basshunter - I Can Walk On Water
21. David May - Superstar
22. Sylvia Tosun - Underlying Feeling (Adam K & Soha Radio Mix)
23. ATB pres. Jades - Wrong Medication

Код:

Exact Audio Copy V0.99 prebeta 5 from 4. May 2009

Отчёт EAC об извлечении, выполненном 26. октября 2010, 19:32

VA / Танцевальный рай 23

Дисковод: HL-DT-STDVDRAM GSA-T50N   Adapter: 2  ID: 0

Режим чтения                 : Достоверность
Использование точного потока : Да
Отключение кэша аудио        : Да
Использование указателей C2  : Нет

Коррекция смещения при чтении                     : 667
Способность читать области Lead-in и Lead-out     : Нет
Заполнение пропущенных сэмплов тишиной            : Да
Удаление блоков с тишиной в начале и конце        : Нет
При вычислениях CRC использовались нулевые сэмплы : Да
Интерфейс                                         : Встроенный Win32-интерфейс для Win NT/2000

Выходной формат : Внутренние WAV-операции
Формат сэмплов  : 44.100 Гц; 16 бит; стерео

TOC извлечённого CD

     Трек |   Старт  | Длительность | Начальный сектор | Конечный сектор
    ---------------------------------------------------------------------
       1  |  0:00.00 |    2:54.38   |           0      |      13087     
       2  |  2:54.38 |    3:16.56   |       13088      |      27843     
       3  |  6:11.19 |    3:09.41   |       27844      |      42059     
       4  |  9:20.60 |    3:24.54   |       42060      |      57413     
       5  | 12:45.39 |    3:10.30   |       57414      |      71693     
       6  | 15:55.69 |    3:31.35   |       71694      |      87553     
       7  | 19:27.29 |    3:20.33   |       87554      |     102586     
       8  | 22:47.62 |    2:59.19   |      102587      |     116030     
       9  | 25:47.06 |    3:01.64   |      116031      |     129669     
      10  | 28:48.70 |    3:20.34   |      129670      |     144703     
      11  | 32:09.29 |    3:44.01   |      144704      |     161504     
      12  | 35:53.30 |    3:30.68   |      161505      |     177322     
      13  | 39:24.23 |    3:17.47   |      177323      |     192144     
      14  | 42:41.70 |    2:57.46   |      192145      |     205465     
      15  | 45:39.41 |    2:58.14   |      205466      |     218829     
      16  | 48:37.55 |    5:30.63   |      218830      |     243642     
      17  | 54:08.43 |    2:56.60   |      243643      |     256902     
      18  | 57:05.28 |    3:17.64   |      256903      |     271741     
      19  | 60:23.17 |    3:01.59   |      271742      |     285375     
      20  | 63:25.01 |    3:40.56   |      285376      |     301931     
      21  | 67:05.57 |    3:17.72   |      301932      |     316778     
      22  | 70:23.54 |    3:38.62   |      316779      |     333190     
      23  | 74:02.41 |    3:40.03   |      333191      |     349693     

Характеристики диапазона извлечения и сообщения об ошибках

Выбранный диапазон

     Имя файла C:\Users\Alex\Desktop\VA - Танцевальный рай 23.wav

     Пиковый уровень 97.7 %
     Качество диапазона 100.0 %
     CRC теста B4E6FCED
     CRC копии B4E6FCED
     Копирование... OK

Ошибок не произошло

 
AccurateRip: сводка
 
Трек  1  нет в базе данных
Трек  2  нет в базе данных
Трек  3  нет в базе данных
Трек  4  нет в базе данных
Трек  5  нет в базе данных
Трек  6  нет в базе данных
Трек  7  нет в базе данных
Трек  8  нет в базе данных
Трек  9  нет в базе данных
Трек 10  нет в базе данных
Трек 11  нет в базе данных
Трек 12  нет в базе данных
Трек 13  нет в базе данных
Трек 14  нет в базе данных
Трек 15  нет в базе данных
Трек 16  нет в базе данных
Трек 17  нет в базе данных
Трек 18  нет в базе данных
Трек 19  нет в базе данных
Трек 20  нет в базе данных
Трек 21  нет в базе данных
Трек 22  нет в базе данных
Трек 23  нет в базе данных
 
Ни одного трека нет в базе AccurateRip

Конец отчёта
Alex2GB дооформите пожалуйста тему и залейте торрент.
Союзовские Танцевальные Раи отличаются от этих, кстати кто их издавал?
Написано студия СОЮЗ и далее EMI Music Publishing Ltd.
Alex2GB добавь студию

Страница 1 из 1

new_topic  reply_topic

Текущее время: 06-Май 20:16
Часовой пояс: GMT + 4

m Сделано с любовью PR-CY.ru Каталог webplus.info