Вход на сайт

Имя:
Пароль:

· Забыли пароль?
logo
Портал Форум
Регистрация Вход


new_topic  reply_topic

  (House) Various Artists - DeeJay Nation Vol. 04 2002, APE (image + .cue), lossless

pic
Год выпуска: 2002
Производитель: Германия
Жанр: House
Номер #: 876 942-2 ( Globe )
Продолжительность: CD 1 01:08:47 CD 2 01:15:12

Тип издания: сборник
Аудио кодек: APE
Тип рипа: (image + .cue)
Битрейт аудио: lossless

Треклист:

CD 1

01. Gigi D'agostino - Super
02. Billy More - Up & Down
03. Fiocco - The Crowd Is Moving
04. Klubbheads - Kickin' Hard 2001 ( Central Seven Remix )
05. Ian Van Dahl - Castle' s In The Sky
06. Astroline - Close My Eye' s ( Sam-Pling Vs. Steve L Remix )
07. Ratty - Sunrise
08. Dee Age - Snowflake' s ( Pulsedriver Remix )
09. Nicky Davis - To Munich ( Steve L. Joins Planet Trax Remix )
10. Mikado - Welcome To The Club
11. Barcode Brothers - Doh Dooh
12. Killer K. - Get On The Move
13. Disc-O-Magic - Party Time
14. Qu-Zar - Hypnotize
15. DJ Valium - Doin' It Again
16. Floorfilla - Italo Dancer

CD 2
01. Balloon- Technorocker
02. Potatoheads - Mix The Master
03. Porn Kings - Sledger
04. Clubbstars - Let The Bass Kick ( Superfunk Edit )
05. Beatbox - Show Me Love
06. Taiko - Silence
07. Datura - Yerba Del Diablo
08. Headroom* - City Nature ( Original Remix )
09. Shaun Baker - Somebody
10. Yoda - Definitely
11. Derb - Derb
12. Moon, The - Blow The Speaker' s
13. DJ Errik - Minimal Obsession
14. Derler & Klitzing - Nuclear Device
15. Voodoo & Serano - Blood Is Pumping
16. Off-Cast Project - Into The Light

Код:

Exact Audio Copy V0.99 prebeta 5 from 4. May 2009

Отчёт EAC об извлечении, выполненном 1. апреля 2014, 10:17

- / Deejay  Nation  Vol. 4  CD 1

Дисковод: ASUS    DRW-2014L1T   Adapter: 5  ID: 0

Режим чтения                 : Достоверность
Использование точного потока : Да
Отключение кэша аудио        : Да
Использование указателей C2  : Нет

Коррекция смещения при чтении                     : 6
Способность читать области Lead-in и Lead-out     : Нет
Заполнение пропущенных сэмплов тишиной            : Да
Удаление блоков с тишиной в начале и конце        : Нет
При вычислениях CRC использовались нулевые сэмплы : Да
Интерфейс                                         : Встроенный Win32-интерфейс для Win NT/2000

Выходной формат          : Monkey's Audio (без потерь)
Выбранный битрейт        : Extra High Lossless Compression
Качество                 : Высокий
Добавление ID3-тэга      : Нет
Утилита сжатия           : C:\Program Files (x86)\Monkey's Audio\MAC.exe
Дополнительные параметры : -w "Artist=%a" -w "Title=%t" -w "Album=%g" -w "Year=%y" -w "Track=%n" -w "Genre=%m" -h %s %d

TOC извлечённого CD

     Трек |   Старт  | Длительность | Начальный сектор | Конечный сектор
    ---------------------------------------------------------------------
       1  |  0:00.00 |    4:00.28   |           0      |      18027     
       2  |  4:00.28 |    3:16.44   |       18028      |      32771     
       3  |  7:16.72 |    3:34.31   |       32772      |      48852     
       4  | 10:51.28 |    7:51.01   |       48853      |      84178     
       5  | 18:42.29 |    3:19.67   |       84179      |      99170     
       6  | 22:02.21 |    3:39.19   |       99171      |     115614     
       7  | 25:41.40 |    3:42.08   |      115615      |     132272     
       8  | 29:23.48 |    7:24.29   |      132273      |     165601     
       9  | 36:48.02 |    4:42.05   |      165602      |     186756     
      10  | 41:30.07 |    5:52.09   |      186757      |     213165     
      11  | 47:22.16 |    3:55.41   |      213166      |     230831     
      12  | 51:17.57 |    2:59.57   |      230832      |     244313     
      13  | 54:17.39 |    3:30.56   |      244314      |     260119     
      14  | 57:48.20 |    3:42.20   |      260120      |     276789     
      15  | 61:30.40 |    3:26.40   |      276790      |     292279     
      16  | 64:57.05 |    3:50.38   |      292280      |     309567     

Характеристики диапазона извлечения и сообщения об ошибках

Выбранный диапазон

     Имя файла D:\Bit Torrent\Various  Artists - DeeJay  Nation  Vol. 4\Various  Artists - DeeJay  Nation  Vol  4  CD 1\Various  Artists - DeeJay  Nation  Vol. 4  CD 1.wav

     Пиковый уровень 100.0 %
     Качество диапазона 99.9 %
     CRC теста 0B044EF1
     CRC копии 0B044EF1
     Копирование... OK

Ошибок не произошло

 
AccurateRip: сводка
 
Трек  1  нет в базе данных
Трек  2  нет в базе данных
Трек  3  нет в базе данных
Трек  4  нет в базе данных
Трек  5  нет в базе данных
Трек  6  нет в базе данных
Трек  7  нет в базе данных
Трек  8  нет в базе данных
Трек  9  нет в базе данных
Трек 10  нет в базе данных
Трек 11  нет в базе данных
Трек 12  нет в базе данных
Трек 13  нет в базе данных
Трек 14  нет в базе данных
Трек 15  нет в базе данных
Трек 16  нет в базе данных
 
Ни одного трека нет в базе AccurateRip

Конец отчёта

Код:

Exact Audio Copy V0.99 prebeta 5 from 4. May 2009

Отчёт EAC об извлечении, выполненном 1. апреля 2014, 10:52

Various  Artists / Deejay  Nation  Vol. 4  CD 2

Дисковод: ASUS    DRW-2014L1T   Adapter: 5  ID: 0

Режим чтения                 : Достоверность
Использование точного потока : Да
Отключение кэша аудио        : Да
Использование указателей C2  : Нет

Коррекция смещения при чтении                     : 6
Способность читать области Lead-in и Lead-out     : Нет
Заполнение пропущенных сэмплов тишиной            : Да
Удаление блоков с тишиной в начале и конце        : Нет
При вычислениях CRC использовались нулевые сэмплы : Да
Интерфейс                                         : Встроенный Win32-интерфейс для Win NT/2000

Выходной формат          : Monkey's Audio (без потерь)
Выбранный битрейт        : Extra High Lossless Compression
Качество                 : Высокий
Добавление ID3-тэга      : Нет
Утилита сжатия           : C:\Program Files (x86)\Monkey's Audio\MAC.exe
Дополнительные параметры : -w "Artist=%a" -w "Title=%t" -w "Album=%g" -w "Year=%y" -w "Track=%n" -w "Genre=%m" -h %s %d

TOC извлечённого CD

     Трек |   Старт  | Длительность | Начальный сектор | Конечный сектор
    ---------------------------------------------------------------------
       1  |  0:00.00 |    3:48.29   |           0      |      17128     
       2  |  3:48.29 |    3:31.05   |       17129      |      32958     
       3  |  7:19.34 |    2:51.56   |       32959      |      45839     
       4  | 10:11.15 |    3:19.64   |       45840      |      60828     
       5  | 13:31.04 |    3:42.46   |       60829      |      77524     
       6  | 17:13.50 |    2:51.21   |       77525      |      90370     
       7  | 20:04.71 |    6:12.51   |       90371      |     118321     
       8  | 26:17.47 |    7:02.14   |      118322      |     149985     
       9  | 33:19.61 |    3:13.07   |      149986      |     164467     
      10  | 36:32.68 |    3:38.09   |      164468      |     180826     
      11  | 40:11.02 |    5:18.66   |      180827      |     204742     
      12  | 45:29.68 |   10:22.17   |      204743      |     251409     
      13  | 55:52.10 |    8:48.34   |      251410      |     291043     
      14  | 64:40.44 |    3:25.20   |      291044      |     306438     
      15  | 68:05.64 |    3:29.26   |      306439      |     322139     
      16  | 71:35.15 |    3:37.57   |      322140      |     338471     

Характеристики диапазона извлечения и сообщения об ошибках

Выбранный диапазон

     Имя файла D:\Bit Torrent\Various  Artists - DeeJay  Nation  Vol. 4\Various  Artists - DeeJay  Nation  Vol  4  CD 2\Various  Artists - Deejay  Nation  Vol. 4  CD 2.wav

     Пиковый уровень 100.0 %
     Качество диапазона 100.0 %
     CRC теста 582EBE03
     CRC копии 582EBE03
     Копирование... OK

Ошибок не произошло

 
AccurateRip: сводка
 
Трек  1  нет в базе данных
Трек  2  нет в базе данных
Трек  3  нет в базе данных
Трек  4  нет в базе данных
Трек  5  нет в базе данных
Трек  6  нет в базе данных
Трек  7  нет в базе данных
Трек  8  нет в базе данных
Трек  9  нет в базе данных
Трек 10  нет в базе данных
Трек 11  нет в базе данных
Трек 12  нет в базе данных
Трек 13  нет в базе данных
Трек 14  нет в базе данных
Трек 15  нет в базе данных
Трек 16  нет в базе данных
 
Ни одного трека нет в базе AccurateRip

Конец отчёта

Страница 1 из 1

new_topic  reply_topic

Текущее время: 06-Май 20:30
Часовой пояс: GMT + 4

m Сделано с любовью PR-CY.ru Каталог webplus.info