Вход на сайт

Имя:
Пароль:

· Забыли пароль?
logo
Портал Форум
Регистрация Вход


new_topic  reply_topic

  (House) Various Artists - TBI: The Best In House 2 2005, APE (image + .cue), lossless

pic
Год выпуска: 2005
Производитель: Германия
Жанр: House
Номер #: ZYX 81764-2 ( ZYX Music )
Продолжительность: CD 1 01:11:16 CD 2 01:12:47 CD 3 01:15:59

Тип издания: сборник
Аудио кодек: APE
Тип рипа: (image + .cue)
Битрейт аудио: lossless

Треклист:

CD 1

01. StoneBridge Feat. Therese - Put' Em High ( JJ Stockholm' s Radio Edit )
02. M. Miller & Jim Connor - Come Together ( Vocal Club Mix )
03. Timo Maas - First Day ( Extended Version )
04. Deep Dish - Say Hello ( Radio Edit )
05. Markus Gardeweg - Hello ( Extended Mix )
06. Nuances Feat. Linda Lee Hopkin' s - I Feel Love
07. Gallaxee - Broken Heart ( Extended Version )
08. Denis & Jerry* - I Get What I Wan' t ( Denis The Menace & Jerry Ropero' s Main Mix )
09. A&P Project Feat. Zemya Hamilton - Sunrize ( Original Mix )
10. Axwell - Lead Guitar ( Axwell Club )
11. Busface Feat. Mademoiselle E.B. - Circle' s ( Just My Good Time ) ( Busface 12" Mix )
12. Stellar Project Feat. Brandi Emma - Get Up Stand Up ( Phunk Investigation Radio Mix )

CD 2

01. Vinylshakerz - Club Tropicana ( Vinylshakerz Screen Cut )
02. Horny United - Good Time' s ( Jim Tonique' s Basment Mix )
03. Benassi Bros. Feat. Dhany - Every Single Day ( Club Version )
04. Dexxlab - Rise Up ( Extended Mix )
05. Max Graham Vs. Yes - Owner Of A Lonely Heart ( Club Mix )
06. DJ Manian - Heat Of The Moment ( Club Mix )
07. Farolfi* & GambaFreak' s Vs. Moloko - A Style Suite ( GambaFreak' s Vs. Farolfi Mix )
08. Espirito - Luna ( Francesco Rossi Club Mix )
09. Tony Bravo Feat. Treib-House - Do U Feel The Same Way II ? ( Club Mix )
10. Deepest Blue - Shooting Star ( Full Intention Remix )
11. Supercharger - Don' t Get Into Trouble
12. Fox Force Five - Touch Me ( Radio Edit )

CD 3

01. Morillo* Feat. Terra Deva - What Do You Wan' t ( Erick Morillo Club Mix )
02. Napkin - What Has Happened ( Miller & Conner Edit )
03. Kenneth Rossetti Feat. André Da Silva - Sambà ( GambaFreak' s Vs. III Sound Academy Mix )
04. Theory: Kaos ! - Electronic Surgery ( 12" Vocal )
05. Gee* 'N' Pigbwoy - Take U Inside ( Filter N Faze Long Version )
06. Benny Benassi Present' s Biz, The - Stop-Go ( Radio Edit )
07. Don Bosco - Cherry Girl ( Extended Mix )
08. Party Pimpz* - Give It Up
09. House Diva' s Feat. Barbara Tucker, Michelle Week' s, Su Su Bobien, Sabrynaah Pope, Dawn Tallman - Life ( Original Radio Edit )
10. Di Fumetti - Where Is The Love ( Ryan House Mix )
11. Amada - Sweet Danger ( Original Mix )
12. Picco - It Goes On & On ( Sunloverz Full Vocal Remix )

Код:

Exact Audio Copy V0.99 prebeta 5 from 4. May 2009

Отчёт EAC об извлечении, выполненном 14. мая 2014, 20:39

Various  Artists / The  Best  In  House  2  ( CD 1 )

Дисковод: ASUS    DRW-2014L1T   Adapter: 5  ID: 0

Режим чтения                 : Достоверность
Использование точного потока : Да
Отключение кэша аудио        : Да
Использование указателей C2  : Нет

Коррекция смещения при чтении                     : 6
Способность читать области Lead-in и Lead-out     : Нет
Заполнение пропущенных сэмплов тишиной            : Да
Удаление блоков с тишиной в начале и конце        : Нет
При вычислениях CRC использовались нулевые сэмплы : Да
Интерфейс                                         : Встроенный Win32-интерфейс для Win NT/2000

Выходной формат          : Monkey's Audio (без потерь)
Выбранный битрейт        : Extra High Lossless Compression
Качество                 : Высокий
Добавление ID3-тэга      : Нет
Утилита сжатия           : C:\Program Files (x86)\Monkey's Audio\MAC.exe
Дополнительные параметры : -w "Artist=%a" -w "Title=%t" -w "Album=%g" -w "Year=%y" -w "Track=%n" -w "Genre=%m" -h %s %d

TOC извлечённого CD

     Трек |   Старт  | Длительность | Начальный сектор | Конечный сектор
    ---------------------------------------------------------------------
       1  |  0:00.00 |    3:28.02   |           0      |      15601     
       2  |  3:28.02 |    6:56.21   |       15602      |      46822     
       3  | 10:24.23 |    4:09.64   |       46823      |      65561     
       4  | 14:34.12 |    3:07.54   |       65562      |      79640     
       5  | 17:41.66 |    7:40.36   |       79641      |     114176     
       6  | 25:22.27 |    7:47.65   |      114177      |     149266     
       7  | 33:10.17 |    7:08.27   |      149267      |     181393     
       8  | 40:18.44 |    7:04.05   |      181394      |     213198     
       9  | 47:22.49 |    7:04.64   |      213199      |     245062     
      10  | 54:27.38 |    7:09.37   |      245063      |     277274     
      11  | 61:37.00 |    6:44.10   |      277275      |     307584     
      12  | 68:21.10 |    2:55.18   |      307585      |     320727     

Характеристики диапазона извлечения и сообщения об ошибках

Выбранный диапазон

     Имя файла D:\Bit Torrent\Various  Artists - The  Best  In  House  2\Various  Artists - The  Best  In  House  2  ( CD 1 )\Various  Artists - The  Best  In  House  2  ( CD 1 ).wav

     Пиковый уровень 98.9 %
     Качество диапазона 100.0 %
     CRC теста 7486BE94
     CRC копии 7486BE94
     Копирование... OK

Ошибок не произошло

 
AccurateRip: сводка
 
Трек  1  нет в базе данных
Трек  2  нет в базе данных
Трек  3  нет в базе данных
Трек  4  нет в базе данных
Трек  5  нет в базе данных
Трек  6  нет в базе данных
Трек  7  нет в базе данных
Трек  8  нет в базе данных
Трек  9  нет в базе данных
Трек 10  нет в базе данных
Трек 11  нет в базе данных
Трек 12  нет в базе данных
 
Ни одного трека нет в базе AccurateRip

Конец отчёта

Код:

Exact Audio Copy V0.99 prebeta 5 from 4. May 2009

Отчёт EAC об извлечении, выполненном 14. мая 2014, 21:05

Various  Artists / The  Best  In  House  2  ( CD 2 )

Дисковод: ASUS    DRW-2014L1T   Adapter: 5  ID: 0

Режим чтения                 : Достоверность
Использование точного потока : Да
Отключение кэша аудио        : Да
Использование указателей C2  : Нет

Коррекция смещения при чтении                     : 6
Способность читать области Lead-in и Lead-out     : Нет
Заполнение пропущенных сэмплов тишиной            : Да
Удаление блоков с тишиной в начале и конце        : Нет
При вычислениях CRC использовались нулевые сэмплы : Да
Интерфейс                                         : Встроенный Win32-интерфейс для Win NT/2000

Выходной формат          : Monkey's Audio (без потерь)
Выбранный битрейт        : Extra High Lossless Compression
Качество                 : Высокий
Добавление ID3-тэга      : Нет
Утилита сжатия           : C:\Program Files (x86)\Monkey's Audio\MAC.exe
Дополнительные параметры : -w "Artist=%a" -w "Title=%t" -w "Album=%g" -w "Year=%y" -w "Track=%n" -w "Genre=%m" -h %s %d

TOC извлечённого CD

     Трек |   Старт  | Длительность | Начальный сектор | Конечный сектор
    ---------------------------------------------------------------------
       1  |  0:00.00 |    3:28.01   |           0      |      15600     
       2  |  3:28.01 |    7:14.34   |       15601      |      48184     
       3  | 10:42.35 |    6:42.45   |       48185      |      78379     
       4  | 17:25.05 |    7:49.30   |       78380      |     113584     
       5  | 25:14.35 |    8:08.21   |      113585      |     150205     
       6  | 33:22.56 |    5:49.45   |      150206      |     176425     
       7  | 39:12.26 |    5:18.36   |      176426      |     200311     
       8  | 44:30.62 |    6:29.39   |      200312      |     229525     
       9  | 51:00.26 |    7:09.62   |      229526      |     261762     
      10  | 58:10.13 |    8:01.02   |      261763      |     297839     
      11  | 66:11.15 |    3:38.47   |      297840      |     314236     
      12  | 69:49.62 |    2:58.04   |      314237      |     327590     

Характеристики диапазона извлечения и сообщения об ошибках

Выбранный диапазон

     Имя файла D:\Bit Torrent\Various  Artists - The  Best  In  House  2\Various  Artists - The  Best  In  House  2  ( CD 2 )\Various  Artists - The  Best  In  House  2  ( CD 2 ).wav

     Пиковый уровень 98.8 %
     Качество диапазона 100.0 %
     CRC теста DEBF8465
     CRC копии DEBF8465
     Копирование... OK

Ошибок не произошло

 
AccurateRip: сводка
 
Трек  1  нет в базе данных
Трек  2  нет в базе данных
Трек  3  нет в базе данных
Трек  4  нет в базе данных
Трек  5  нет в базе данных
Трек  6  нет в базе данных
Трек  7  нет в базе данных
Трек  8  нет в базе данных
Трек  9  нет в базе данных
Трек 10  нет в базе данных
Трек 11  нет в базе данных
Трек 12  нет в базе данных
 
Ни одного трека нет в базе AccurateRip

Конец отчёта

Код:

Exact Audio Copy V0.99 prebeta 5 from 4. May 2009

Отчёт EAC об извлечении, выполненном 14. мая 2014, 21:30

Various  Artists / The  Best  In  House  2  ( CD 3 )

Дисковод: ASUS    DRW-2014L1T   Adapter: 5  ID: 0

Режим чтения                 : Достоверность
Использование точного потока : Да
Отключение кэша аудио        : Да
Использование указателей C2  : Нет

Коррекция смещения при чтении                     : 6
Способность читать области Lead-in и Lead-out     : Нет
Заполнение пропущенных сэмплов тишиной            : Да
Удаление блоков с тишиной в начале и конце        : Нет
При вычислениях CRC использовались нулевые сэмплы : Да
Интерфейс                                         : Встроенный Win32-интерфейс для Win NT/2000

Выходной формат          : Monkey's Audio (без потерь)
Выбранный битрейт        : Extra High Lossless Compression
Качество                 : Высокий
Добавление ID3-тэга      : Нет
Утилита сжатия           : C:\Program Files (x86)\Monkey's Audio\MAC.exe
Дополнительные параметры : -w "Artist=%a" -w "Title=%t" -w "Album=%g" -w "Year=%y" -w "Track=%n" -w "Genre=%m" -h %s %d

TOC извлечённого CD

     Трек |   Старт  | Длительность | Начальный сектор | Конечный сектор
    ---------------------------------------------------------------------
       1  |  0:00.00 |    5:56.12   |           0      |      26711     
       2  |  5:56.12 |    3:50.00   |       26712      |      43961     
       3  |  9:46.12 |    6:58.73   |       43962      |      75384     
       4  | 16:45.10 |    8:11.01   |       75385      |     112210     
       5  | 24:56.11 |    8:42.11   |      112211      |     151371     
       6  | 33:38.22 |    3:33.17   |      151372      |     167363     
       7  | 37:11.39 |    7:08.56   |      167364      |     199519     
       8  | 44:20.20 |    5:29.00   |      199520      |     224194     
       9  | 49:49.20 |    4:58.51   |      224195      |     246595     
      10  | 54:47.71 |    6:36.08   |      246596      |     276303     
      11  | 61:24.04 |    7:05.24   |      276304      |     308202     
      12  | 68:29.28 |    7:29.62   |      308203      |     341939     

Характеристики диапазона извлечения и сообщения об ошибках

Выбранный диапазон

     Имя файла D:\Bit Torrent\Various  Artists - The  Best  In  House  2\Various  Artists - The  Best  In  House  2  ( CD 3 )\Various  Artists - The  Best  In  House  2  ( CD 3 ).wav

     Пиковый уровень 97.7 %
     Качество диапазона 100.0 %
     CRC теста 8D42E4D1
     CRC копии 8D42E4D1
     Копирование... OK

Ошибок не произошло

 
AccurateRip: сводка
 
Трек  1  нет в базе данных
Трек  2  нет в базе данных
Трек  3  нет в базе данных
Трек  4  нет в базе данных
Трек  5  нет в базе данных
Трек  6  нет в базе данных
Трек  7  нет в базе данных
Трек  8  нет в базе данных
Трек  9  нет в базе данных
Трек 10  нет в базе данных
Трек 11  нет в базе данных
Трек 12  нет в базе данных
 
Ни одного трека нет в базе AccurateRip

Конец отчёта

Страница 1 из 1

new_topic  reply_topic

Текущее время: 06-Май 19:46
Часовой пояс: GMT + 4

m Сделано с любовью PR-CY.ru Каталог webplus.info