Вход на сайт

Имя:
Пароль:

· Забыли пароль?
logo
Портал Форум
Регистрация Вход


new_topic  reply_topic

  (Italo Disco) Various Artist - Italo Disco Hit 2 2004, APE (image + .cue), lossless

pic
Год выпуска: 2004
Производитель: Россия
Жанр: Italo Disco
Номер #: LP 313 ( Танцевальный Рай )
Продолжительность: 69:39

Тип издания: сборник
Аудио кодек: APE
Тип рипа: (image + .cue)
Битрейт аудио: lossless

Треклист:

01. L2R Vs. Toto Coutugno - Autre Chanson ( Amore Mix )
02. Nilo - Mare ( Vanni G. Radio Cut )
03. DaniJay Feat. Hellen - Il Gioco Dell' Amore
04. Earphones - Short Happy Life ( Idea Short )
05. DJ Lhasa Vs. Gabry Ponte - Giulia ( Gabry Ponte Rmx FM Cut )
06. Hard In Tango - This Is My DJ ( Original Fisa Edit Mix )
07. Mute Mercy - 1 Of U
08. Kate Leesing - River' s Of Avalon
09. Richi & Filip - Captain Girl
10. Tom Noize - Wonderful Life
11. X-Five - Always There
12. Voice & Noise - It' s Over ( Vanni G. Radio Cut )
13. DJ Seelk - Number One
14. Gyaxe - Night Of Love
15. Erox - L' Amore
16. Mr. Konrad - Dire, Fare, Baciare
17. Steve A. Jerkin - With Or Without You ( DJ Kim Versus Mix & Magic Rmx )
18. Marc Maris Vs. Ramone - Remember
19. T42 - Too Much
20. 2 People - Holiday Ride ( Piparo' s Edit )

Код:

Exact Audio Copy V0.99 prebeta 5 from 4. May 2009

Отчёт EAC об извлечении, выполненном 30. марта 2014, 18:12

Various Artist / Italo Disco Hit 2.

Дисковод: ASUS    DRW-2014L1T   Adapter: 5  ID: 0

Режим чтения                 : Достоверность
Использование точного потока : Да
Отключение кэша аудио        : Да
Использование указателей C2  : Нет

Коррекция смещения при чтении                     : 6
Способность читать области Lead-in и Lead-out     : Нет
Заполнение пропущенных сэмплов тишиной            : Да
Удаление блоков с тишиной в начале и конце        : Нет
При вычислениях CRC использовались нулевые сэмплы : Да
Интерфейс                                         : Встроенный Win32-интерфейс для Win NT/2000

Выходной формат          : Monkey's Audio (без потерь)
Выбранный битрейт        : Extra High Lossless Compression
Качество                 : Высокий
Добавление ID3-тэга      : Нет
Утилита сжатия           : C:\Program Files (x86)\Monkey's Audio\MAC.exe
Дополнительные параметры : -w "Artist=%a" -w "Title=%t" -w "Album=%g" -w "Year=%y" -w "Track=%n" -w "Genre=%m" -h %s %d

TOC извлечённого CD

     Трек |   Старт  | Длительность | Начальный сектор | Конечный сектор
    ---------------------------------------------------------------------
       1  |  0:00.00 |    2:38.29   |           0      |      11878     
       2  |  2:38.29 |    3:23.07   |       11879      |      27110     
       3  |  6:01.36 |    3:50.74   |       27111      |      44434     
       4  |  9:52.35 |    3:13.39   |       44435      |      58948     
       5  | 13:05.74 |    4:10.52   |       58949      |      77750     
       6  | 17:16.51 |    3:44.01   |       77751      |      94551     
       7  | 21:00.52 |    3:17.25   |       94552      |     109351     
       8  | 24:18.02 |    3:31.14   |      109352      |     125190     
       9  | 27:49.16 |    3:37.23   |      125191      |     141488     
      10  | 31:26.39 |    3:59.30   |      141489      |     159443     
      11  | 35:25.69 |    3:21.08   |      159444      |     174526     
      12  | 38:47.02 |    2:50.33   |      174527      |     187309     
      13  | 41:37.35 |    3:45.37   |      187310      |     204221     
      14  | 45:22.72 |    3:25.60   |      204222      |     219656     
      15  | 48:48.57 |    3:15.09   |      219657      |     234290     
      16  | 52:03.66 |    3:52.67   |      234291      |     251757     
      17  | 55:56.58 |    3:29.45   |      251758      |     267477     
      18  | 59:26.28 |    3:25.58   |      267478      |     282910     
      19  | 62:52.11 |    3:35.56   |      282911      |     299091     
      20  | 66:27.67 |    3:11.25   |      299092      |     313441     

Характеристики диапазона извлечения и сообщения об ошибках

Выбранный диапазон

     Имя файла D:\Bit Torrent\Various  Artist - Italo  Disco  Hit  2\Various  Artist - Italo  Disco  Hit  2.wav

     Пиковый уровень 98.8 %
     Качество диапазона 99.9 %
     CRC теста E5427690
     CRC копии E5427690
     Копирование... OK

Ошибок не произошло

 
AccurateRip: сводка
 
Трек  1  нет в базе данных
Трек  2  нет в базе данных
Трек  3  нет в базе данных
Трек  4  нет в базе данных
Трек  5  нет в базе данных
Трек  6  нет в базе данных
Трек  7  нет в базе данных
Трек  8  нет в базе данных
Трек  9  нет в базе данных
Трек 10  нет в базе данных
Трек 11  нет в базе данных
Трек 12  нет в базе данных
Трек 13  нет в базе данных
Трек 14  нет в базе данных
Трек 15  нет в базе данных
Трек 16  нет в базе данных
Трек 17  нет в базе данных
Трек 18  нет в базе данных
Трек 19  нет в базе данных
Трек 20  нет в базе данных
 
Ни одного трека нет в базе AccurateRip

Конец отчёта
Уж не знаю куда этот сборник определить. По стилю как бы и то и то. в шапке оставил другой стиль. Скачайте, послушайте.
shutov12
италодиско это наврядли, а вот может Italodance или Pop, Dance. Надо слушать мне чтоб более дать точный ответ. А как в целом сборник? Спасибо.
Да в целом сборник более-менее послушать. но для меня как всегда песен 5 нормально. Завтра поставлю на раздачу, помогите его кинуть в правильный раздел.

Страница 1 из 1

new_topic  reply_topic

Текущее время: 06-Май 20:46
Часовой пояс: GMT + 4

m Сделано с любовью PR-CY.ru Каталог webplus.info