Вход на сайт

Имя:
Пароль:

· Забыли пароль?
logo
Портал Форум
Регистрация Вход


new_topic  reply_topic

  (Trance, House) DJ E-Maxx - Make U Move ( Supermegamaxi ) 2007, APE (image + .cue), lossless

pic
Год выпуска: 2007
Страна: Польша, Италия
Производитель: Австрия
Жанр: Trance? House
Номер #: BR 0320-SMM ( Balloon Records )
Продолжительность: 01:19:42

Тип издания: сборник
Аудио кодек: APE
Тип рипа: (image + .cue)
Битрейт аудио: lossless

Треклист:

01. DJ E-Maxx - Make U Move ( Radio Edit )
02. DJ E-Maxx - Make U Move ( Rocco & Bass-t Remix Edit )
03. DJ E-Maxx - Make U Move ( Original Club Mix )
04. DJ E-Maxx - Make U Move ( Rocco & Bass-t Remix )
05. Molella - Originale Radicale Musicale ( DJ MNS Vs. DJ E-Maxx Remix )
06. Anima Ladina - Extasy ( DJ MNS Vs. DJ E-Maxx Remix )
07. Klubbhoppers - Rain Again ( DJ E-Maxx Original Club Mix )
08. DJ E-Maxx - Monster Machine ( Original Club Mix )
09. Datura Vs. DJ MNS - Infinity ( DJ MNS Vs. DJ E-Maxx Remix )
10. Datura Vs. DJ MNS - Infinity ( Rocco & Bass-t Remix )
11. DJ MNS Vs. DJ E-Maxx - Made In Holland ( DJ E-Maxx Mix )
12. DJ MNS Vs. DJ E-Maxx - Pump My Bass ( Main Mix )
13. Klubbhoppers - Crazy Duck ( DJ E-Maxx Original Club Mix )
14. DJ E-Maxx - GSM Jump ( Original Mix )

Доп. информация: По поводу приобретения образа в ЛС

Код:

Exact Audio Copy V0.99 prebeta 5 from 4. May 2009

Отчёт EAC об извлечении, выполненном 30. января 2014, 11:02

DJ  E-Maxx / Make  U  Move  ( Supermegamaxi )

Дисковод: ASUS    DRW-2014L1T   Adapter: 5  ID: 0

Режим чтения                 : Достоверность
Использование точного потока : Да
Отключение кэша аудио        : Да
Использование указателей C2  : Нет

Коррекция смещения при чтении                     : 6
Способность читать области Lead-in и Lead-out     : Нет
Заполнение пропущенных сэмплов тишиной            : Да
Удаление блоков с тишиной в начале и конце        : Нет
При вычислениях CRC использовались нулевые сэмплы : Да
Интерфейс                                         : Встроенный Win32-интерфейс для Win NT/2000

Выходной формат          : Monkey's Audio (без потерь)
Выбранный битрейт        : Extra High Lossless Compression
Качество                 : Высокий
Добавление ID3-тэга      : Нет
Утилита сжатия           : C:\Program Files (x86)\Monkey's Audio\MAC.exe
Дополнительные параметры : -w "Artist=%a" -w "Title=%t" -w "Album=%g" -w "Year=%y" -w "Track=%n" -w "Genre=%m" -h %s %d

TOC извлечённого CD

     Трек |   Старт  | Длительность | Начальный сектор | Конечный сектор
    ---------------------------------------------------------------------
       1  |  0:00.00 |    3:55.10   |           0      |      17634     
       2  |  3:55.10 |    3:42.65   |       17635      |      34349     
       3  |  7:38.00 |    5:34.18   |       34350      |      59417     
       4  | 13:12.18 |    5:04.20   |       59418      |      82237     
       5  | 18:16.38 |    7:00.47   |       82238      |     113784     
       6  | 25:17.10 |    6:30.64   |      113785      |     143098     
       7  | 31:47.74 |    5:40.34   |      143099      |     168632     
       8  | 37:28.33 |    5:41.44   |      168633      |     194251     
       9  | 43:10.02 |    5:53.37   |      194252      |     220763     
      10  | 49:03.39 |    6:07.59   |      220764      |     248347     
      11  | 55:11.23 |    6:22.33   |      248348      |     277030     
      12  | 61:33.56 |    6:40.03   |      277031      |     307033     
      13  | 68:13.59 |    6:06.05   |      307034      |     334488     
      14  | 74:19.64 |    5:22.47   |      334489      |     358685     

Характеристики диапазона извлечения и сообщения об ошибках

Выбранный диапазон

     Имя файла D:\Bit Torrent\DJ  MNS   &  DJ  E-Maxx\DJ  E-Maxx - Make  U  Move  ( Supermegamaxi  CDM )  ( BR 0320-SMM )  2007\DJ  E-Maxx - Make  U  Move  ( Supermegamaxi ).wav

     Пиковый уровень 100.0 %
     Качество диапазона 100.0 %
     CRC теста DB79D759
     CRC копии DB79D759
     Копирование... OK

Ошибок не произошло

 
AccurateRip: сводка
 
Трек  1  точное извлечение (доверие 1)  [A183A549]
Трек  2  точное извлечение (доверие 1)  [01C484CC]
Трек  3  точное извлечение (доверие 1)  [4EE95253]
Трек  4  точное извлечение (доверие 1)  [84961998]
Трек  5  точное извлечение (доверие 1)  [D96D6BE8]
Трек  6  точное извлечение (доверие 1)  [F354EA5B]
Трек  7  точное извлечение (доверие 1)  [26AE8F48]
Трек  8  точное извлечение (доверие 1)  [ACE7AAF4]
Трек  9  точное извлечение (доверие 1)  [7F5B807F]
Трек 10  точное извлечение (доверие 1)  [6CF48A6E]
Трек 11  точное извлечение (доверие 1)  [391FCAD1]
Трек 12  точное извлечение (доверие 1)  [8C9C77AD]
Трек 13  точное извлечение (доверие 1)  [B1314A49]
Трек 14  точное извлечение (доверие 1)  [A8C60BFB]
 
Все треки извлечены точно

Конец отчёта

Страница 1 из 1

new_topic  reply_topic

Текущее время: 06-Май 19:48
Часовой пояс: GMT + 4

m Сделано с любовью PR-CY.ru Каталог webplus.info