Вход на сайт

Имя:
Пароль:

· Забыли пароль?
logo
Портал Форум
Регистрация Вход


new_topic  reply_topic

  (Trance House) Various Artists - Dance Attack 2005, APE (image + .cue), lossless

pic
Год выпуска: 2005
Производитель: Германия
Жанр: Trance, House
Номер #: 8910603 MORE Musik And Media
Продолжительность: CD 1 1:09:54 CD 2 1:10:52

Тип издания: сборник
Аудио кодек: APE
Тип рипа: (image + .cue)
Битрейт аудио: lossless

Треклист:

CD 1

01. Crazy Frog – Axel F ( Radio Mix )
02. DJ Shog – Running Water ( Edit )
03. Florida Inc.– Let Me Love You ( Radio Mix )
04. Raccoon – Summer Vibez ( Original Edit )
05. Club Oriented – California ( Chino Radio Edit )
06. DJs @ Work – You' r Love ( Radio Mix )
07. Freddy Fader – The Sun ( Single )
08. Party Pimpz* – Give It Up ( Progressive Mix Edit )
09. Jan Wayne – Mad World ( Radio Edit )
10. Don Diablo Pres. Divided – Easy Lover ( Radio Edit )
11. Pulsedriver – Vagabonds ( Radio Mix )
12. Sun:Port – Angels Fall First
13. C-Base – Lift Me Up ( Original Radio Edit )
14. Scale – Fight ( Tune Up ! Radio Mix )
15. Zee-Ro – Thing Will Never Change ( Radio Mix )
16. East Clubbers ( Vocals Kate Lesing ) – More, More, More ! ( Gambas Radio Mix )
17. DJ Martello – Sex On The Street ( Max Deejay & Massiv 4 Radio Cut )
18. Dee Jay Chucky – Take Me Up
19. Disco Babes – Hot Stuff
20. Hypertrophy – Just Come Back 2 Me 2005

CD 2

01. Royal Gigolos – Self Control ( D.O.N.S. Single Mix )
02. Disco Kings – Born To Be Alive ( Original Radio Edit )
03. Jon Smith & Mark Wilcox Feat. Jacley – Love Changes ( Everything )
04. DJ Antoine – All We Need 2005 ( Radio Vocal Mix )
05. Soul Central Feat. Kathy Brown – String' s Of Life ( Stronger On My Own ) ( Radio Edit )
06. StoneBridge Feat. Therese– Put' Em High ( JJ Stockholm' s Radio Edit )
07. The Lovefreekz – Shine ( Radio Edit )
08. Tragma – Thing' s Can Only Get Better
09. Taras – I Love You
10. Marco Larusso – Bad 4 Good ( Radio Mix )
11. Ron Van Den Beuken – Sunset ( Radio Edit )
12. System F– Ignition, Sequence, Start !
13. Airbase – Pandemonium / Ocean Realm
14. Marc Van Linden Feat. De/Vision – The Real Thing / LH 3293
15. Global Sound Players – Weekend
16. DJ Enzo. CH – Independence
17. Sound Posse – Kinetic Power ( Dan Winter Radio Mix )
18. CJ Stone Feat. Rename – Call My Name ( Club Edit )
19. Potatoheadz Feat. Lizzy Pattinson – Narcotic ( Radio Mix )
20. DJ Lawless Feat. Hypeman – Here We Are ( Whoomp ! ) ( Radio Mix )

Доп. информация: CD 1 12, 13, 17, 18 Треки MP3 CD 2 1, 2, 3, 6, 7, 9, 10, 11, 12, 13, 14, 15, 19 Треки MP3

Код:

Exact Audio Copy V0.99 prebeta 5 from 4. May 2009

Отчёт EAC об извлечении, выполненном 9. января 2014, 17:38

Various  Artists / Dance  Attack  CD 1

Дисковод: ASUS    DRW-2014L1T   Adapter: 5  ID: 0

Режим чтения                 : Достоверность
Использование точного потока : Да
Отключение кэша аудио        : Да
Использование указателей C2  : Нет

Коррекция смещения при чтении                     : 6
Способность читать области Lead-in и Lead-out     : Нет
Заполнение пропущенных сэмплов тишиной            : Да
Удаление блоков с тишиной в начале и конце        : Нет
При вычислениях CRC использовались нулевые сэмплы : Да
Интерфейс                                         : Встроенный Win32-интерфейс для Win NT/2000

Выходной формат          : Monkey's Audio (без потерь)
Выбранный битрейт        : Extra High Lossless Compression
Качество                 : Высокий
Добавление ID3-тэга      : Нет
Утилита сжатия           : C:\Program Files (x86)\Monkey's Audio\MAC.exe
Дополнительные параметры : -w "Artist=%a" -w "Title=%t" -w "Album=%g" -w "Year=%y" -w "Track=%n" -w "Genre=%m" -h %s %d

TOC извлечённого CD

     Трек |   Старт  | Длительность | Начальный сектор | Конечный сектор
    ---------------------------------------------------------------------
       1  |  0:00.00 |    2:51.29   |           0      |      12853     
       2  |  2:51.29 |    3:38.55   |       12854      |      29258     
       3  |  6:30.09 |    3:01.58   |       29259      |      42891     
       4  |  9:31.67 |    3:46.46   |       42892      |      59887     
       5  | 13:18.38 |    3:58.68   |       59888      |      77805     
       6  | 17:17.31 |    3:14.31   |       77806      |      92386     
       7  | 20:31.62 |    3:40.41   |       92387      |     108927     
       8  | 24:12.28 |    3:23.09   |      108928      |     124161     
       9  | 27:35.37 |    3:38.38   |      124162      |     140549     
      10  | 31:14.00 |    3:20.61   |      140550      |     155610     
      11  | 34:34.61 |    3:37.12   |      155611      |     171897     
      12  | 38:11.73 |    3:34.08   |      171898      |     187955     
      13  | 41:46.06 |    3:17.14   |      187956      |     202744     
      14  | 45:03.20 |    3:18.70   |      202745      |     217664     
      15  | 48:22.15 |    3:46.10   |      217665      |     234624     
      16  | 52:08.25 |    3:25.40   |      234625      |     250039     
      17  | 55:33.65 |    3:43.57   |      250040      |     266821     
      18  | 59:17.47 |    3:27.26   |      266822      |     282372     
      19  | 62:44.73 |    3:54.21   |      282373      |     299943     
      20  | 66:39.19 |    3:14.70   |      299944      |     314563     

Характеристики диапазона извлечения и сообщения об ошибках

Выбранный диапазон

     Имя файла D:\Bit Torrent\Various  Artists - Dance  Attack\Various  Artists - Dance  Attack   CD 1\Various  Artists - Dance  Attack   CD 1.wav

     Пиковый уровень 99.7 %
     Качество диапазона 100.0 %
     CRC теста D625D7D2
     CRC копии D625D7D2
     Копирование... OK

Ошибок не произошло

 
AccurateRip: сводка
 
Трек  1  нет в базе данных
Трек  2  нет в базе данных
Трек  3  нет в базе данных
Трек  4  нет в базе данных
Трек  5  нет в базе данных
Трек  6  нет в базе данных
Трек  7  нет в базе данных
Трек  8  нет в базе данных
Трек  9  нет в базе данных
Трек 10  нет в базе данных
Трек 11  нет в базе данных
Трек 12  нет в базе данных
Трек 13  нет в базе данных
Трек 14  нет в базе данных
Трек 15  нет в базе данных
Трек 16  нет в базе данных
Трек 17  нет в базе данных
Трек 18  нет в базе данных
Трек 19  нет в базе данных
Трек 20  нет в базе данных
 
Ни одного трека нет в базе AccurateRip

Конец отчёта

Код:

Exact Audio Copy V0.99 prebeta 5 from 4. May 2009

Отчёт EAC об извлечении, выполненном 9. января 2014, 20:24

Various  Artists / Dance  Attack  CD 2

Дисковод: ASUS    DRW-2014L1T   Adapter: 5  ID: 0

Режим чтения                 : Достоверность
Использование точного потока : Да
Отключение кэша аудио        : Да
Использование указателей C2  : Нет

Коррекция смещения при чтении                     : 6
Способность читать области Lead-in и Lead-out     : Нет
Заполнение пропущенных сэмплов тишиной            : Да
Удаление блоков с тишиной в начале и конце        : Нет
При вычислениях CRC использовались нулевые сэмплы : Да
Интерфейс                                         : Встроенный Win32-интерфейс для Win NT/2000

Выходной формат          : Monkey's Audio (без потерь)
Выбранный битрейт        : Extra High Lossless Compression
Качество                 : Высокий
Добавление ID3-тэга      : Нет
Утилита сжатия           : C:\Program Files (x86)\Monkey's Audio\MAC.exe
Дополнительные параметры : -w "Artist=%a" -w "Title=%t" -w "Album=%g" -w "Year=%y" -w "Track=%n" -w "Genre=%m" -h %s %d

TOC извлечённого CD

     Трек |   Старт  | Длительность | Начальный сектор | Конечный сектор
    ---------------------------------------------------------------------
       1  |  0:00.00 |    3:42.03   |           0      |      16652     
       2  |  3:42.03 |    3:17.67   |       16653      |      31494     
       3  |  6:59.70 |    3:30.03   |       31495      |      47247     
       4  | 10:29.73 |    3:36.18   |       47248      |      63465     
       5  | 14:06.16 |    3:36.34   |       63466      |      79699     
       6  | 17:42.50 |    3:27.65   |       79700      |      95289     
       7  | 21:10.40 |    3:16.58   |       95290      |     110047     
       8  | 24:27.23 |    3:56.62   |      110048      |     127809     
       9  | 28:24.10 |    3:39.29   |      127810      |     144263     
      10  | 32:03.39 |    3:49.10   |      144264      |     161448     
      11  | 35:52.49 |    3:45.12   |      161449      |     178335     
      12  | 39:37.61 |    3:48.57   |      178336      |     195492     
      13  | 43:26.43 |    3:38.24   |      195493      |     211866     
      14  | 47:04.67 |    3:32.26   |      211867      |     227792     
      15  | 50:37.18 |    3:06.60   |      227793      |     241802     
      16  | 53:44.03 |    3:20.66   |      241803      |     256868     
      17  | 57:04.69 |    3:19.01   |      256869      |     271794     
      18  | 60:23.70 |    3:13.30   |      271795      |     286299     
      19  | 63:37.25 |    3:37.21   |      286300      |     302595     
      20  | 67:14.46 |    3:37.61   |      302596      |     318931     

Характеристики диапазона извлечения и сообщения об ошибках

Выбранный диапазон

     Имя файла D:\Bit Torrent\Various  Artists - Dance  Attack\Various  Artists - Dance  Attack   CD 2\Various  Artists - Dance  Attack  CD 2.wav

     Пиковый уровень 99.7 %
     Качество диапазона 99.9 %
     CRC теста 62A69C31
     CRC копии 62A69C31
     Копирование... OK

Ошибок не произошло

 
AccurateRip: сводка
 
Трек  1  нет в базе данных
Трек  2  нет в базе данных
Трек  3  нет в базе данных
Трек  4  нет в базе данных
Трек  5  нет в базе данных
Трек  6  нет в базе данных
Трек  7  нет в базе данных
Трек  8  нет в базе данных
Трек  9  нет в базе данных
Трек 10  нет в базе данных
Трек 11  нет в базе данных
Трек 12  нет в базе данных
Трек 13  нет в базе данных
Трек 14  нет в базе данных
Трек 15  нет в базе данных
Трек 16  нет в базе данных
Трек 17  нет в базе данных
Трек 18  нет в базе данных
Трек 19  нет в базе данных
Трек 20  нет в базе данных
 
Ни одного трека нет в базе AccurateRip

Конец отчёта
shutov12
статус АПКОНВЕРТ.
Alex2GB
К сожалению так сейчас выпускают диски. И если это официальный сборник с таким набором треков то статус точно не апконверт. Просто задумка автора сделать что то оригинальное где и мп3 будет и Вав и прочее разнообразие. А вообще мне только те песни важны которые я отметил другим цветом, они точно не фарш.
shutov12
тут никак нету задумки автора, потому что тут треки разилчных исполнителей. Вот именно таким релизам присваивается статус АПКОНВЕРТ. Если бы это был неофициальный или проще говоря самопал, то такие раздачи в МУСОРКУ сразу.

Посмотри вот тут (Eurodance) Free 2 Night feat. BP - Lost Control 2012, WAV (tracks), lossless

Цитата:

Напомню, что на официальные апконверты ставится соответствующий статус "æ · апконверт", а НЕофициальные апконверты подлежат удалению.
Ну тогда пусть будет апконверт. Просто здесь 50\50 идёт.

shutov12 писал(а):

Страна: United Artists
Google Maps не нашел такой страны. Если страна не известна, просьба пункт опускать, либо писать, например, Европа, если штамповка европейская.

shutov12 писал(а):

Производитель: Germany
Мы - русскоязычный портал, поэтому, Германия

shutov12 писал(а):

Жанр: Trance House
Это один жанр или несколько? Если второе, то нужно писать через запятую

shutov12 писал(а):

Номер #: 8910603 MORE Musik And Media
Номер (Лейбл)

shutov12 писал(а):

Продолжительность: CD 1 69:54 CD 2 70:52
Желательно написать так: 1:09:54 + 1:10:52

Почему это так важно?
Если мы будем преобразовывать сайт в каталог, то необходим единый шаблон, чтобы конвертация прошла успешно.

И наконец, спасибо за релиз! Скачаю, посмотрю что за апконверты там такие, ну и конечно заценю музончик
Замечания исправил, можно качать.

Страница 1 из 1

new_topic  reply_topic

Текущее время: 06-Май 19:59
Часовой пояс: GMT + 4

m Сделано с любовью PR-CY.ru Каталог webplus.info