Вход на сайт

Имя:
Пароль:

· Забыли пароль?
logo
Портал Форум
Регистрация Вход


new_topic  reply_topic

  (Trance) Various - Promo Only Progressive Club - March 2001, FLAC (tracks + .cue), lossless

pic
Страна: Uk
Производитель: Uk
Жанр: Trance
Номер #: Promo Only (UK) ‎– POPC MAR 01
Тип издания: сборник
Аудио кодек: FLAC
Тип рипа: (tracks + .cue)
Битрейт аудио: lossless

Треклист:

01) Ogenki Clinic – First Light
02) Black Russian – La Liga
03) Hydrogen Rockers – Musica
04) Mansa – Heart & Soul
05) Chaos Theory – Another Dimension
06) Greed – Strange World (Mike Monday Mix)
07) Avid – Fierce Affection
08) Justin Bourne – Strapped In (Karim Mix)
09) 10th Planet – Ghosts (Jon Doe Remix)


Доп. информация: (CD, Compilation, Promo) - Unmixed, Немиксованный сборник (все треки полные).
_______________________________________________
http://www.discogs.com/Various-Promo-Only-Progressive-Club-March-2001/release/1220537

Код:

Exact Audio Copy V1.0 beta 3 from 29. August 2011

EAC extraction logfile from 7. June 2012, 19:01

Various / Promo Only Mar 2001

Used drive  : MATSHITADVD-RAM UJ8A2AS   Adapter: 0  ID: 1

Read mode               : Secure
Utilize accurate stream : Yes
Defeat audio cache      : Yes
Make use of C2 pointers : No

Read offset correction                      : 102
Overread into Lead-In and Lead-Out          : No
Fill up missing offset samples with silence : Yes
Delete leading and trailing silent blocks   : No
Null samples used in CRC calculations       : Yes
Used interface                              : Native Win32 interface for Win NT & 2000
Gap handling                                : Appended to previous track

Used output format              : User Defined Encoder
Selected bitrate                : 1024 kBit/s
Quality                         : High
Add ID3 tag                     : No
Command line compressor         : C:\Program Files (x86)\Exact Audio Copy\Flac\flac.exe
Additional command line options : -8 -V -T "ARTIST=%artist%" -T "TITLE=%title%" -T "ALBUM=%albumtitle%" -T "DATE=%year%" -T "TRACKNUMBER=%tracknr1%" -T "GENRE=%genre%" -T "PERFORMER=%albuminterpret%" -T "COMPOSER=%composer%" %haslyrics%--tag-from-file=LYRICS="%lyricsfile%"%haslyrics% -T "ALBUMARTIST=%albumartist%" -T "DISCNUMBER=%cdnumber%" -T "TOTALDISCS=%totalcds%" -T "TOTALTRACKS=%numtracks%" -T "COMMENT=%comment%" %source% -o %dest%

TOC of the extracted CD

     Track |   Start  |  Length  | Start sector | End sector
    ---------------------------------------------------------
        1  |  0:00.00 | 10:46.07 |         0    |    48456   
        2  | 10:46.07 |  6:39.38 |     48457    |    78419   
        3  | 17:25.45 |  7:12.10 |     78420    |   110829   
        4  | 24:37.55 |  8:22.20 |    110830    |   148499   
        5  | 33:00.00 |  8:18.23 |    148500    |   185872   
        6  | 41:18.23 |  8:39.56 |    185873    |   224853   
        7  | 49:58.04 | 11:02.44 |    224854    |   274547   
        8  | 61:00.48 |  7:42.53 |    274548    |   309250   
        9  | 68:43.26 |  7:52.51 |    309251    |   344701   

Track  1

     Filename C:\EAC Rips\Promo Only - March (2001)[FLAC]\01 First Light.wav

     Pre-gap length  0:00:02.00

     Peak level 98.8 %
     Extraction speed 1.4 X
     Track quality 100.0 %
     Test CRC 90CF6020
     Copy CRC 90CF6020
     Track not present in AccurateRip database
     Copy OK

Track  2

     Filename C:\EAC Rips\Promo Only - March (2001)[FLAC]\02 La Luga.wav

     Pre-gap length  0:00:01.45

     Peak level 98.8 %
     Extraction speed 1.6 X
     Track quality 100.0 %
     Test CRC FCB06399
     Copy CRC FCB06399
     Track not present in AccurateRip database
     Copy OK

Track  3

     Filename C:\EAC Rips\Promo Only - March (2001)[FLAC]\03 Musica.wav

     Pre-gap length  0:00:01.45

     Peak level 98.8 %
     Extraction speed 1.8 X
     Track quality 100.0 %
     Test CRC 0175A315
     Copy CRC 0175A315
     Track not present in AccurateRip database
     Copy OK

Track  4

     Filename C:\EAC Rips\Promo Only - March (2001)[FLAC]\04 Heart & Soul.wav

     Pre-gap length  0:00:01.45

     Peak level 98.8 %
     Extraction speed 2.0 X
     Track quality 100.0 %
     Test CRC 9B840C98
     Copy CRC 9B840C98
     Track not present in AccurateRip database
     Copy OK

Track  5

     Filename C:\EAC Rips\Promo Only - March (2001)[FLAC]\05 Another Dimension.wav

     Pre-gap length  0:00:01.45

     Peak level 98.8 %
     Extraction speed 2.0 X
     Track quality 99.9 %
     Test CRC 51DBDEB0
     Copy CRC 51DBDEB0
     Track not present in AccurateRip database
     Copy OK

Track  6

     Filename C:\EAC Rips\Promo Only - March (2001)[FLAC]\06 Strange World - mike monday mix.wav

     Pre-gap length  0:00:01.45

     Peak level 97.7 %
     Extraction speed 2.3 X
     Track quality 100.0 %
     Test CRC 423871E8
     Copy CRC 423871E8
     Track not present in AccurateRip database
     Copy OK

Track  7

     Filename C:\EAC Rips\Promo Only - March (2001)[FLAC]\07 Fierce Affection.wav

     Pre-gap length  0:00:01.45

     Peak level 98.8 %
     Extraction speed 2.5 X
     Track quality 100.0 %
     Test CRC 80182D09
     Copy CRC 80182D09
     Track not present in AccurateRip database
     Copy OK

Track  8

     Filename C:\EAC Rips\Promo Only - March (2001)[FLAC]\08 Strapped In - karim mix.wav

     Pre-gap length  0:00:01.45

     Peak level 98.8 %
     Extraction speed 2.6 X
     Track quality 100.0 %
     Test CRC 7ACFB893
     Copy CRC 7ACFB893
     Track not present in AccurateRip database
     Copy OK

Track  9

     Filename C:\EAC Rips\Promo Only - March (2001)[FLAC]\09 Ghosts - jon doe remix.wav

     Pre-gap length  0:00:01.45

     Peak level 98.8 %
     Extraction speed 2.8 X
     Track quality 100.0 %
     Test CRC 6F403F94
     Copy CRC 6F403F94
     Track not present in AccurateRip database
     Copy OK

None of the tracks are present in the AccurateRip database

No errors occurred

End of status report

---- CUETools DB Plugin V2.1.3

[CTDB TOCID: yHNvcPYOz_JkE7mAmpr9ViiKKQg-] disk not present in database, Submit result: yHNvcPYOz_JkE7mAmpr9ViiKKQg- has been uploaded

==== Log checksum B6ABBB5D7A7656EFCC8527A9A76468BEA3FBC7644180A1B1C45E64D9B2C7B50D ====

Страница 1 из 1

new_topic  reply_topic

Текущее время: 06-Май 20:52
Часовой пояс: GMT + 4

m Сделано с любовью PR-CY.ru Каталог webplus.info