Вход на сайт

Имя:
Пароль:

· Забыли пароль?
logo
Портал Форум
Регистрация Вход


new_topic  reply_topic

  (Trance) Various ‎– Promo Only Progressive Club: January 2001, FLAC (tracks + .cue), lossless

pic
Страна: Uk
Производитель: Uk
Жанр: Trance
Номер #: Promo Only (UK) ‎– POPC JAN 01
Тип издания: сборник
Аудио кодек: FLAC
Тип рипа: (tracks + .cue)
Битрейт аудио: lossless

Треклист:

01) Bang – Leave Me Alone (Full Vox Mix)
02) Durango 95 – Lectronik (Force Mass Motion Remix)
03) Lam Tarn – Over The Edge (Original Mix)
04) Club Seduction – Shooters (Dub Groove Mix)
05) Pepper Sweeney – H For You
06) Xploder – 2 To The Top (Original Mix)
07) Brain Bashers vs. Johnny Dangerous – Get Wicked (Mutha Mix)
08) Lock 'n' Load – House Some More (Steve Thomas Mix)


Доп. информация: (CD, Compilation, Promo) - Unmixed, Немиксованный сборник (все треки полные).
_______________________________________________
http://www.discogs.com/Various-Promo-Only-Progressive-Club-January-2001/release/1322781

Код:

Exact Audio Copy V1.0 beta 3 from 29. August 2011

EAC extraction logfile from 22. January 2012, 1:19

Various / Promo Only Progressive Club - January 2001

Used drive  : Optiarc DVDRWBD BC-5540H   Adapter: 0  ID: 1

Read mode               : Secure
Utilize accurate stream : Yes
Defeat audio cache      : Yes
Make use of C2 pointers : No

Read offset correction                      : 48
Overread into Lead-In and Lead-Out          : No
Fill up missing offset samples with silence : Yes
Delete leading and trailing silent blocks   : No
Null samples used in CRC calculations       : Yes
Used interface                              : Native Win32 interface for Win NT & 2000
Gap handling                                : Appended to previous track

Used output format              : User Defined Encoder
Selected bitrate                : 1024 kBit/s
Quality                         : High
Add ID3 tag                     : No
Command line compressor         : C:\Program Files (x86)\Exact Audio Copy\Flac\flac.exe
Additional command line options : -8 -V -T "ARTIST=%artist%" -T "TITLE=%title%" -T "ALBUM=%albumtitle%" -T "DATE=%year%" -T "TRACKNUMBER=%tracknr%" -T "GENRE=%genre%" -T "PERFORMER=%albuminterpret%" -T "COMPOSER=%composer%" %haslyrics%--tag-from-file=LYRICS="%lyricsfile%"%haslyrics% -T "ALBUMARTIST=%albumartist%" -T "DISCNUMBER=%cdnumber%" -T "TOTALDISCS=%totalcds%" -T "TOTALTRACKS=%numtracks%" -T "COMMENT=%comment%" %source% -o %dest%

TOC of the extracted CD

     Track |   Start  |  Length  | Start sector | End sector
    ---------------------------------------------------------
        1  |  0:00.00 |  8:19.38 |         0    |    37462   
        2  |  8:19.38 |  8:38.25 |     37463    |    76337   
        3  | 16:57.63 |  9:18.32 |     76338    |   118219   
        4  | 26:16.20 |  5:55.74 |    118220    |   144918   
        5  | 32:12.19 |  7:37.08 |    144919    |   179201   
        6  | 39:49.27 |  6:02.18 |    179202    |   206369   
        7  | 45:51.45 |  7:21.14 |    206370    |   239458   
        8  | 53:12.59 |  7:35.01 |    239459    |   273584   

Track  1

     Filename C:\EACrips\Various - Promo Only Progressive Club - January 2001 (2001) [FLAC]\01 - Bang - Leave Me Alone (Full Vox Mix).wav

     Pre-gap length  0:00:02.00

     Peak level 98.8 %
     Extraction speed 11.0 X
     Track quality 100.0 %
     Test CRC 7A9DD18D
     Copy CRC 7A9DD18D
     Track not present in AccurateRip database
     Copy OK

Track  2

     Filename C:\EACrips\Various - Promo Only Progressive Club - January 2001 (2001) [FLAC]\02 - Durango 95 - Lectronik (Force Mass Motion Remix).wav

     Pre-gap length  0:00:01.45

     Peak level 99.7 %
     Extraction speed 12.2 X
     Track quality 100.0 %
     Test CRC E4259165
     Copy CRC E4259165
     Track not present in AccurateRip database
     Copy OK

Track  3

     Filename C:\EACrips\Various - Promo Only Progressive Club - January 2001 (2001) [FLAC]\03 - Lam Tarn - Over The Edge (Original Mix).wav

     Pre-gap length  0:00:01.45

     Peak level 98.8 %
     Extraction speed 14.4 X
     Track quality 99.9 %
     Test CRC 7BA1C2EE
     Copy CRC 7BA1C2EE
     Track not present in AccurateRip database
     Copy OK

Track  4

     Filename C:\EACrips\Various - Promo Only Progressive Club - January 2001 (2001) [FLAC]\04 - Club Seduction - Shooters (Dub Groove Mix).wav

     Pre-gap length  0:00:01.45

     Peak level 98.8 %
     Extraction speed 15.9 X
     Track quality 100.0 %
     Test CRC 36F13CE3
     Copy CRC 36F13CE3
     Track not present in AccurateRip database
     Copy OK

Track  5

     Filename C:\EACrips\Various - Promo Only Progressive Club - January 2001 (2001) [FLAC]\05 - Pepper Sweeney - H For You.wav

     Pre-gap length  0:00:01.45

     Peak level 98.8 %
     Extraction speed 17.1 X
     Track quality 100.0 %
     Test CRC BCFE9301
     Copy CRC BCFE9301
     Track not present in AccurateRip database
     Copy OK

Track  6

     Filename C:\EACrips\Various - Promo Only Progressive Club - January 2001 (2001) [FLAC]\06 - Xploder - 2 To The Top (Original Mix).wav

     Pre-gap length  0:00:01.45

     Peak level 98.8 %
     Extraction speed 17.7 X
     Track quality 100.0 %
     Test CRC CA68EF30
     Copy CRC CA68EF30
     Track not present in AccurateRip database
     Copy OK

Track  7

     Filename C:\EACrips\Various - Promo Only Progressive Club - January 2001 (2001) [FLAC]\07 - Brain Bashers vs. Johnny Dangerous - Get Wicked (Mutha Mix).wav

     Pre-gap length  0:00:01.45

     Peak level 98.8 %
     Extraction speed 17.6 X
     Track quality 99.9 %
     Test CRC 7BE89592
     Copy CRC 7BE89592
     Track not present in AccurateRip database
     Copy OK

Track  8

     Filename C:\EACrips\Various - Promo Only Progressive Club - January 2001 (2001) [FLAC]\08 - Lock 'n' Load - House Some More (Steve Thomas Mix).wav

     Pre-gap length  0:00:01.45

     Peak level 98.8 %
     Extraction speed 19.9 X
     Track quality 100.0 %
     Test CRC 119CB6AD
     Copy CRC 119CB6AD
     Track not present in AccurateRip database
     Copy OK

None of the tracks are present in the AccurateRip database

No errors occurred

End of status report

---- CUETools DB Plugin V2.1.3

[CTDB TOCID: H.GPQeRlJFo7vaXWNpgI9lIRYK0-] disk not present in database, Submit result: H.GPQeRlJFo7vaXWNpgI9lIRYK0- has been uploaded

==== Log checksum 1E8B1DDDEFF7334E2EDEE03CB6CEE5B1F0B8EEEB10E06A153909A4C1855B6541 ====

Страница 1 из 1

new_topic  reply_topic

Текущее время: 06-Май 20:44
Часовой пояс: GMT + 4

m Сделано с любовью PR-CY.ru Каталог webplus.info