Вход на сайт

Имя:
Пароль:

· Забыли пароль?
logo
Портал Форум
Регистрация Вход


new_topic  reply_topic

  (Trance) Various ‎– Promo Only Progressive Club: August 2001, FLAC (tracks + .cue), lossless

pic
Страна: Uk
Производитель: Uk
Жанр: Trance
Номер #: Promo Only (UK) ‎– POPC AUG 01
Тип издания: сборник
Аудио кодек: FLAC
Тип рипа: (tracks + .cue)
Битрейт аудио: lossless

Треклист:

01) Rollerblade – (When I've Done) My First Hit (Trisco Remix)
02) DCM – Elemental
03) Bacon Popper – Free (Theme 2001) (Andy & Paul Farina Remix Club)
04) Michel De Hey vs. Literon – Hirogen
05) Steve Gibbs – Tokyo (Original Mix)
06) Lisa Loud – Miles For Sound (Lisa Loud Mix)
07) Mezz – Cubism
08) Dreamcatcher – I Don't Wanna Lose My Way (Moguai Mix)
09) Darren Tate vs. Andy Morris – Red & Blue (Original Mix)


Доп. информация: (CD, Compilation, Promo) - Unmixed, Немиксованный сборник (все треки полные).
_______________________________________________
http://www.discogs.com/Various-Promo-Only-Progressive-Club-August-2001/release/3357933

Код:

Exact Audio Copy V1.0 beta 3 from 29. August 2011

EAC extraction logfile from 22. January 2012, 2:36

Various / Promo Only Progressive Club - August 2001

Used drive  : Optiarc DVDRWBD BC-5540H   Adapter: 0  ID: 1

Read mode               : Secure
Utilize accurate stream : Yes
Defeat audio cache      : Yes
Make use of C2 pointers : No

Read offset correction                      : 48
Overread into Lead-In and Lead-Out          : No
Fill up missing offset samples with silence : Yes
Delete leading and trailing silent blocks   : No
Null samples used in CRC calculations       : Yes
Used interface                              : Native Win32 interface for Win NT & 2000
Gap handling                                : Appended to previous track

Used output format              : User Defined Encoder
Selected bitrate                : 1024 kBit/s
Quality                         : High
Add ID3 tag                     : No
Command line compressor         : C:\Program Files (x86)\Exact Audio Copy\Flac\flac.exe
Additional command line options : -8 -V -T "ARTIST=%artist%" -T "TITLE=%title%" -T "ALBUM=%albumtitle%" -T "DATE=%year%" -T "TRACKNUMBER=%tracknr%" -T "GENRE=%genre%" -T "PERFORMER=%albuminterpret%" -T "COMPOSER=%composer%" %haslyrics%--tag-from-file=LYRICS="%lyricsfile%"%haslyrics% -T "ALBUMARTIST=%albumartist%" -T "DISCNUMBER=%cdnumber%" -T "TOTALDISCS=%totalcds%" -T "TOTALTRACKS=%numtracks%" -T "COMMENT=%comment%" %source% -o %dest%

TOC of the extracted CD

     Track |   Start  |  Length  | Start sector | End sector
    ---------------------------------------------------------
        1  |  0:00.00 |  7:56.58 |         0    |    35757   
        2  |  7:56.58 |  7:43.48 |     35758    |    70530   
        3  | 15:40.31 |  5:52.71 |     70531    |    97001   
        4  | 21:33.27 |  6:08.37 |     97002    |   124638   
        5  | 27:41.64 |  7:43.66 |    124639    |   159429   
        6  | 35:25.55 |  8:26.29 |    159430    |   197408   
        7  | 43:52.09 |  8:36.36 |    197409    |   236144   
        8  | 52:28.45 | 10:00.33 |    236145    |   281177   
        9  | 62:29.03 |  7:54.47 |    281178    |   316774   

Track  1

     Filename C:\EACrips\Various - Promo Only Progressive Club - August 2001 (2001) [FLAC]\01 - Rollerblade - (When I've Done) My First Hit (Trisco Remix).wav

     Pre-gap length  0:00:02.00

     Peak level 98.8 %
     Extraction speed 4.6 X
     Track quality 99.9 %
     Test CRC 2F6AE7E3
     Copy CRC 2F6AE7E3
     Track not present in AccurateRip database
     Copy OK

Track  2

     Filename C:\EACrips\Various - Promo Only Progressive Club - August 2001 (2001) [FLAC]\02 - DCM - Elemental.wav

     Peak level 100.0 %
     Extraction speed 5.5 X
     Track quality 100.0 %
     Test CRC 01D75429
     Copy CRC 01D75429
     Track not present in AccurateRip database
     Copy OK

Track  3

     Filename C:\EACrips\Various - Promo Only Progressive Club - August 2001 (2001) [FLAC]\03 - Bacon Popper - Free (Theme 2001) (Andy & Paul Farina Club Remix).wav

     Peak level 98.8 %
     Extraction speed 6.1 X
     Track quality 100.0 %
     Test CRC 0175A22A
     Copy CRC 0175A22A
     Track not present in AccurateRip database
     Copy OK

Track  4

     Filename C:\EACrips\Various - Promo Only Progressive Club - August 2001 (2001) [FLAC]\04 - Michel De Hey vs. Literon - Hirogen.wav

     Peak level 96.6 %
     Extraction speed 6.5 X
     Track quality 99.9 %
     Test CRC B4927976
     Copy CRC B4927976
     Track not present in AccurateRip database
     Copy OK

Track  5

     Filename C:\EACrips\Various - Promo Only Progressive Club - August 2001 (2001) [FLAC]\05 - Steve Gibbs - Tokyo (Original Mix).wav

     Peak level 98.8 %
     Extraction speed 7.2 X
     Track quality 100.0 %
     Test CRC BD0549FF
     Copy CRC BD0549FF
     Track not present in AccurateRip database
     Copy OK

Track  6

     Filename C:\EACrips\Various - Promo Only Progressive Club - August 2001 (2001) [FLAC]\06 - Lisa Loud - Miles For Sound (Lisa Loud Mix).wav

     Peak level 100.0 %
     Extraction speed 7.8 X
     Track quality 100.0 %
     Test CRC 88A15FB3
     Copy CRC 88A15FB3
     Track not present in AccurateRip database
     Copy OK

Track  7

     Filename C:\EACrips\Various - Promo Only Progressive Club - August 2001 (2001) [FLAC]\07 - Mezz - Cubism.wav

     Peak level 97.3 %
     Extraction speed 8.3 X
     Track quality 100.0 %
     Test CRC 9AAA7AFC
     Copy CRC 9AAA7AFC
     Track not present in AccurateRip database
     Copy OK

Track  8

     Filename C:\EACrips\Various - Promo Only Progressive Club - August 2001 (2001) [FLAC]\08 - Dreamcatcher - I Don't Wanna Lose My Way (Moguai Mix).wav

     Peak level 97.9 %
     Extraction speed 8.9 X
     Track quality 100.0 %
     Test CRC D46A32BB
     Copy CRC D46A32BB
     Track not present in AccurateRip database
     Copy OK

Track  9

     Filename C:\EACrips\Various - Promo Only Progressive Club - August 2001 (2001) [FLAC]\09 - Darren Tate vs. Andy Morris - Red & Blue (Original Mix).wav

     Peak level 94.2 %
     Extraction speed 9.5 X
     Track quality 100.0 %
     Test CRC D61014A8
     Copy CRC D61014A8
     Track not present in AccurateRip database
     Copy OK

None of the tracks are present in the AccurateRip database

No errors occurred

End of status report

---- CUETools DB Plugin V2.1.3

[CTDB TOCID: wmHLD3PezRa_LqfiNeFYEBHZv2A-] disk not present in database, Submit result: wmHLD3PezRa_LqfiNeFYEBHZv2A- has been uploaded

==== Log checksum D6D956949ED35DA8F0D27682F09E3630E7F5205D0852449C6E9EB60DC4A24D46 ====

Страница 1 из 1

new_topic  reply_topic

Текущее время: 06-Май 20:29
Часовой пояс: GMT + 4

m Сделано с любовью PR-CY.ru Каталог webplus.info