Вход на сайт

Имя:
Пароль:

· Забыли пароль?
logo
Портал Форум
Регистрация Вход


new_topic  reply_topic

  (Trance) Various ‎– Promo Only Progressive Club: October 2000, FLAC (tracks + .cue), lossless

pic
Страна: Uk
Производитель: Uk
Жанр: Trance
Номер #: Promo Only (UK) ‎– POPC OCT 00
Тип издания: сборник
Аудио кодек: FLAC
Тип рипа: (tracks + .cue)
Битрейт аудио: lossless

Треклист:

1. Rodriguez – Revolution (In The House)
2. Spacecorn – Axel F (Club Trance Mix)
3. Primerose Path – Bells of Joy (Sound Design Kickin' Ass Klubbmix)
4. Club Seduction – Funky Drop (Mass Hysteria Club Mix)
5. Frost – Acid Phase (Original Mix)
6. Traction – Fictive (Original Mix)
7. The Chemist – Alter of Silence (Original Mix)
8. Cassini – Infinity (Kunnen & Vantijk Mix)
9. Folko – Spread Love (All Over The World) (Extended Vocal Club Mix)


Доп. информация: (CD, Compilation, Promo) - Unmixed, Немиксованный сборник (все треки полные).
_______________________________________________
http://www.discogs.com/Various-Promo-Only-Progressive-Club-October-2000/release/3357604

Код:

Exact Audio Copy V1.0 beta 3 from 29. August 2011

EAC extraction logfile from 22. January 2012, 0:41

Various / Promo Only Progressive Club - October 2000

Used drive  : Optiarc DVDRWBD BC-5540H   Adapter: 0  ID: 1

Read mode               : Secure
Utilize accurate stream : Yes
Defeat audio cache      : Yes
Make use of C2 pointers : No

Read offset correction                      : 48
Overread into Lead-In and Lead-Out          : No
Fill up missing offset samples with silence : Yes
Delete leading and trailing silent blocks   : No
Null samples used in CRC calculations       : Yes
Used interface                              : Native Win32 interface for Win NT & 2000
Gap handling                                : Appended to previous track

Used output format              : User Defined Encoder
Selected bitrate                : 1024 kBit/s
Quality                         : High
Add ID3 tag                     : No
Command line compressor         : C:\Program Files (x86)\Exact Audio Copy\Flac\flac.exe
Additional command line options : -8 -V -T "ARTIST=%artist%" -T "TITLE=%title%" -T "ALBUM=%albumtitle%" -T "DATE=%year%" -T "TRACKNUMBER=%tracknr%" -T "GENRE=%genre%" -T "PERFORMER=%albuminterpret%" -T "COMPOSER=%composer%" %haslyrics%--tag-from-file=LYRICS="%lyricsfile%"%haslyrics% -T "ALBUMARTIST=%albumartist%" -T "DISCNUMBER=%cdnumber%" -T "TOTALDISCS=%totalcds%" -T "TOTALTRACKS=%numtracks%" -T "COMMENT=%comment%" %source% -o %dest%

TOC of the extracted CD

     Track |   Start  |  Length  | Start sector | End sector
    ---------------------------------------------------------
        1  |  0:00.00 |  5:48.41 |         0    |    26140   
        2  |  5:48.41 |  5:47.34 |     26141    |    52199   
        3  | 11:36.00 |  6:39.59 |     52200    |    82183   
        4  | 18:15.59 |  7:35.61 |     82184    |   116369   
        5  | 25:51.45 |  7:32.20 |    116370    |   150289   
        6  | 33:23.65 |  5:52.45 |    150290    |   176734   
        7  | 39:16.35 |  6:44.30 |    176735    |   207064   
        8  | 46:00.65 |  5:33.38 |    207065    |   232077   
        9  | 51:34.28 |  6:53.36 |    232078    |   263088   

Track  1

     Filename C:\EACrips\Various - Promo Only Progressive Club - October 2000 (2000) [FLAC]\01 - Rodriguez - Revolution (In the House).wav

     Pre-gap length  0:00:02.00

     Peak level 98.8 %
     Extraction speed 9.6 X
     Track quality 100.0 %
     Test CRC 3E814B92
     Copy CRC 3E814B92
     Track not present in AccurateRip database
     Copy OK

Track  2

     Filename C:\EACrips\Various - Promo Only Progressive Club - October 2000 (2000) [FLAC]\02 - Spacecorn - Axel F (Club Trance Mix).wav

     Pre-gap length  0:00:01.45

     Peak level 97.8 %
     Extraction speed 12.2 X
     Track quality 100.0 %
     Test CRC 99385D9F
     Copy CRC 99385D9F
     Track not present in AccurateRip database
     Copy OK

Track  3

     Filename C:\EACrips\Various - Promo Only Progressive Club - October 2000 (2000) [FLAC]\03 - Primerose Path - Bells of Joy (Sound Design Kickin' Ass Klubbmix).wav

     Pre-gap length  0:00:01.45

     Peak level 98.8 %
     Extraction speed 13.7 X
     Track quality 100.0 %
     Test CRC D720BCC5
     Copy CRC D720BCC5
     Track not present in AccurateRip database
     Copy OK

Track  4

     Filename C:\EACrips\Various - Promo Only Progressive Club - October 2000 (2000) [FLAC]\04 - Club Seduction - Funky Drop (Mass Hysteria Club Mix).wav

     Pre-gap length  0:00:01.45

     Peak level 98.8 %
     Extraction speed 14.3 X
     Track quality 99.9 %
     Test CRC 51724FD0
     Copy CRC 51724FD0
     Track not present in AccurateRip database
     Copy OK

Track  5

     Filename C:\EACrips\Various - Promo Only Progressive Club - October 2000 (2000) [FLAC]\05 - Frost - Acid Phase (Original Mix).wav

     Pre-gap length  0:00:01.45

     Peak level 98.8 %
     Extraction speed 16.4 X
     Track quality 100.0 %
     Test CRC C0D28754
     Copy CRC C0D28754
     Track not present in AccurateRip database
     Copy OK

Track  6

     Filename C:\EACrips\Various - Promo Only Progressive Club - October 2000 (2000) [FLAC]\06 - Traction - Fictive (Original Mix).wav

     Pre-gap length  0:00:01.45

     Peak level 98.8 %
     Extraction speed 17.2 X
     Track quality 100.0 %
     Test CRC 837A5128
     Copy CRC 837A5128
     Track not present in AccurateRip database
     Copy OK

Track  7

     Filename C:\EACrips\Various - Promo Only Progressive Club - October 2000 (2000) [FLAC]\07 - The Chemist - Alter of Silence (Original Mix).wav

     Pre-gap length  0:00:01.45

     Peak level 98.8 %
     Extraction speed 16.6 X
     Track quality 99.9 %
     Test CRC E5156714
     Copy CRC E5156714
     Track not present in AccurateRip database
     Copy OK

Track  8

     Filename C:\EACrips\Various - Promo Only Progressive Club - October 2000 (2000) [FLAC]\08 - Cassini - Infinity (Kunnen & Vantijk Mix).wav

     Pre-gap length  0:00:01.45

     Peak level 98.8 %
     Extraction speed 18.6 X
     Track quality 100.0 %
     Test CRC 8327099D
     Copy CRC 8327099D
     Track not present in AccurateRip database
     Copy OK

Track  9

     Filename C:\EACrips\Various - Promo Only Progressive Club - October 2000 (2000) [FLAC]\09 - Folko - Spread Love (All Over the World) (Extended Vocal Club Mix).wav

     Pre-gap length  0:00:01.45

     Peak level 98.8 %
     Extraction speed 19.9 X
     Track quality 100.0 %
     Test CRC 982C7304
     Copy CRC 982C7304
     Track not present in AccurateRip database
     Copy OK

None of the tracks are present in the AccurateRip database

No errors occurred

End of status report

---- CUETools DB Plugin V2.1.3

[CTDB TOCID: bAZHUo9cwMS.NXkns1H5onxdh9Y-] disk not present in database, Submit result: bAZHUo9cwMS.NXkns1H5onxdh9Y- has been uploaded

==== Log checksum F40BC9B3DBABEEC5C2E691B9F4C55A2D355202A540215A4C2CCBB65D2AE37B75 ====

Страница 1 из 1

new_topic  reply_topic

Текущее время: 06-Май 20:20
Часовой пояс: GMT + 4

m Сделано с любовью PR-CY.ru Каталог webplus.info