Вход на сайт

Имя:
Пароль:

· Забыли пароль?
logo
Портал Форум
Регистрация Вход


new_topic  reply_topic

  (Trance) Various ‎– Promo Only Progressive Club: May 2000, FLAC (tracks + .cue), lossless

pic
Страна: Uk
Производитель: Uk
Жанр: Trance
Номер #: Promo Only (UK) ‎– POPC MAY 00
Тип издания: сборник
Аудио кодек: FLAC
Тип рипа: (tracks + .cue)
Битрейт аудио: lossless

Треклист:

01) Sander Kleinenberg – Storm (Original Mix)
02) Atlantic State – Northern Lights (Original Mix)
03) Agnelli & Nelson - Embrace (Original Mix)
04) William Orbit – Ravel's Pavanne Pour Infante Defunte (Ferry Corsten Mix)
05) Plump DJ's – The Push (Original Mix)
06) Angel – Goldrush (Angel Vocal Mix)
07) Paul Van Dyk – Tell Me Why (PvD Session Mix 1)
08) Dea-Li – Calling The Angels (DJ Taucher Extended Club Mix)
09) Solar Power – The Future (Vocal Mix)


Доп. информация: (CD, Compilation, Promo) - Unmixed, Немиксованный сборник (все треки полные).
_______________________________________________
http://www.discogs.com/Various-Promo-Only-Progressive-Club-May-2000/release/1221119

Код:

Exact Audio Copy V1.0 beta 3 from 29. August 2011

EAC extraction logfile from 21. January 2012, 19:53

Various / Promo Only Progressive Club - May 2000

Used drive  : Optiarc DVDRWBD BC-5540H   Adapter: 0  ID: 1

Read mode               : Secure
Utilize accurate stream : Yes
Defeat audio cache      : Yes
Make use of C2 pointers : No

Read offset correction                      : 48
Overread into Lead-In and Lead-Out          : No
Fill up missing offset samples with silence : Yes
Delete leading and trailing silent blocks   : No
Null samples used in CRC calculations       : Yes
Used interface                              : Native Win32 interface for Win NT & 2000
Gap handling                                : Appended to previous track

Used output format              : User Defined Encoder
Selected bitrate                : 1024 kBit/s
Quality                         : High
Add ID3 tag                     : No
Command line compressor         : C:\Program Files (x86)\Exact Audio Copy\Flac\flac.exe
Additional command line options : -8 -V -T "ARTIST=%artist%" -T "TITLE=%title%" -T "ALBUM=%albumtitle%" -T "DATE=%year%" -T "TRACKNUMBER=%tracknr%" -T "GENRE=%genre%" -T "PERFORMER=%albuminterpret%" -T "COMPOSER=%composer%" %haslyrics%--tag-from-file=LYRICS="%lyricsfile%"%haslyrics% -T "ALBUMARTIST=%albumartist%" -T "DISCNUMBER=%cdnumber%" -T "TOTALDISCS=%totalcds%" -T "TOTALTRACKS=%numtracks%" -T "COMMENT=%comment%" %source% -o %dest%

TOC of the extracted CD

     Track |   Start  |  Length  | Start sector | End sector
    ---------------------------------------------------------
        1  |  0:00.00 |  8:34.50 |         0    |    38599   
        2  |  8:34.50 |  8:00.66 |     38600    |    74665   
        3  | 16:35.41 | 10:15.74 |     74666    |   120864   
        4  | 26:51.40 |  6:40.04 |    120865    |   150868   
        5  | 33:31.44 |  6:37.21 |    150869    |   180664   
        6  | 40:08.65 |  9:00.24 |    180665    |   221188   
        7  | 49:09.14 |  8:41.44 |    221189    |   260307   
        8  | 57:50.58 | 11:35.44 |    260308    |   312476   
        9  | 69:26.27 |  8:13.67 |    312477    |   349518   

Track  1

     Filename C:\EACrips\Various - Promo Only Progressive Club - May 2000 (2000) [FLAC]\01 - Sander Kleinenberg - Storm (Original Mix).wav

     Pre-gap length  0:00:02.00

     Peak level 98.8 %
     Extraction speed 11.4 X
     Track quality 100.0 %
     Test CRC 0EAEB832
     Copy CRC 0EAEB832
     Track not present in AccurateRip database
     Copy OK

Track  2

     Filename C:\EACrips\Various - Promo Only Progressive Club - May 2000 (2000) [FLAC]\02 - Atlantic State - Northern Lights (Original Mix).wav

     Pre-gap length  0:00:01.45

     Peak level 98.8 %
     Extraction speed 13.2 X
     Track quality 100.0 %
     Test CRC FEC0791C
     Copy CRC FEC0791C
     Track not present in AccurateRip database
     Copy OK

Track  3

     Filename C:\EACrips\Various - Promo Only Progressive Club - May 2000 (2000) [FLAC]\03 - Agnelli & Nelson - Embrace (Original Mix).wav

     Pre-gap length  0:00:01.45

     Peak level 98.8 %
     Extraction speed 14.2 X
     Track quality 100.0 %
     Test CRC F0D3B3CA
     Copy CRC F0D3B3CA
     Track not present in AccurateRip database
     Copy OK

Track  4

     Filename C:\EACrips\Various - Promo Only Progressive Club - May 2000 (2000) [FLAC]\04 - William Orbit - Ravel's Pavanne Pour Infante Defunte (Ferry Corsten Mix).wav

     Pre-gap length  0:00:01.45

     Peak level 100.0 %
     Extraction speed 15.2 X
     Track quality 99.9 %
     Test CRC B9DE1C43
     Copy CRC B9DE1C43
     Track not present in AccurateRip database
     Copy OK

Track  5

     Filename C:\EACrips\Various - Promo Only Progressive Club - May 2000 (2000) [FLAC]\05 - Plump DJs - The Push (Original Mix).wav

     Pre-gap length  0:00:01.45

     Peak level 98.8 %
     Extraction speed 16.9 X
     Track quality 100.0 %
     Test CRC B93C0D35
     Copy CRC B93C0D35
     Track not present in AccurateRip database
     Copy OK

Track  6

     Filename C:\EACrips\Various - Promo Only Progressive Club - May 2000 (2000) [FLAC]\06 - Angel - Goldrush (Angel Vocal).wav

     Pre-gap length  0:00:01.45

     Peak level 98.8 %
     Extraction speed 17.9 X
     Track quality 100.0 %
     Test CRC 59A96035
     Copy CRC 59A96035
     Track not present in AccurateRip database
     Copy OK

Track  7

     Filename C:\EACrips\Various - Promo Only Progressive Club - May 2000 (2000) [FLAC]\07 - Paul Van Dyk feat. Saint Etienne - Tell Me Why (The Riddle) (PvD Session Mix 1).wav

     Pre-gap length  0:00:01.45

     Peak level 98.8 %
     Extraction speed 17.7 X
     Track quality 99.9 %
     Test CRC 8A34B869
     Copy CRC 8A34B869
     Track not present in AccurateRip database
     Copy OK

Track  8

     Filename C:\EACrips\Various - Promo Only Progressive Club - May 2000 (2000) [FLAC]\08 - Dea-Li - Calling The Angels (DJ Taucher Extended Club Mix).wav

     Pre-gap length  0:00:01.45

     Peak level 100.0 %
     Extraction speed 20.0 X
     Track quality 100.0 %
     Test CRC 6C69192A
     Copy CRC 6C69192A
     Track not present in AccurateRip database
     Copy OK

Track  9

     Filename C:\EACrips\Various - Promo Only Progressive Club - May 2000 (2000) [FLAC]\09 - Solar Power - The Future (Vocal Mix).wav

     Pre-gap length  0:00:01.45

     Peak level 98.8 %
     Extraction speed 20.9 X
     Track quality 100.0 %
     Test CRC FEE55275
     Copy CRC FEE55275
     Track not present in AccurateRip database
     Copy OK

None of the tracks are present in the AccurateRip database

No errors occurred

End of status report

---- CUETools DB Plugin V2.1.3

[CTDB TOCID: Zz_zjLzLSTNtpZZBbyMj7nThC7Y-] disk not present in database, Submit result: Zz_zjLzLSTNtpZZBbyMj7nThC7Y- has been uploaded

==== Log checksum B79D3244CF9DC31D43F6DFE9F67D2E21B3FFA11D3FDF675893FDBC235B23D81D ====

Страница 1 из 1

new_topic  reply_topic

Текущее время: 06-Май 20:13
Часовой пояс: GMT + 4

m Сделано с любовью PR-CY.ru Каталог webplus.info