Вход на сайт

Имя:
Пароль:

· Забыли пароль?
logo
Портал Форум
Регистрация Вход


new_topic  reply_topic

  (Trance) Various ‎– Promo Only Progressive Club: March 2000, FLAC (tracks + .cue), lossless

pic
Страна: Uk
Производитель: Uk
Жанр: Trance
Номер #: Promo Only (UK) ‎– POPC MAR 00
Тип издания: сборник
Аудио кодек: FLAC
Тип рипа: (tracks + .cue)
Битрейт аудио: lossless

Треклист:

01) Sonique – It Feels So Good (Serious Mix)
02) Libra Presents Taylor – Anomaly - Calling Your Name (Ferry Corsten Remix)
03) Z2 – I Want You (Original Mix)
04) Babe Instinct (2) – Fade To Grey (Scratch & Sniff Mix)
05) Amen vs. Rachel McFarlane – Lover (Amen 12" Club Mix)
06) Nowa Nowa – Free Again (DJ Modelle & Elvira Remix)
07) Chicane featuring Bryan Adams – Don't Give Up (Disco Citizens vs. Tomski Remix)
08) Dario G – Voices (Kriana Mix)
09) CRW – I Feel Love (DJ JamX & De Leon Mix)


Доп. информация: (CD, Compilation, Promo) - Unmixed, Немиксованный сборник (все треки полные).
_______________________________________________
http://www.discogs.com/Various-Promo-Only-Progressive-Club-March-2000/release/3357506

Код:

Exact Audio Copy V1.0 beta 3 from 29. August 2011

EAC extraction logfile from 21. January 2012, 18:47

Various / Promo Only Progressive Club - March 2000

Used drive  : Optiarc DVDRWBD BC-5540H   Adapter: 0  ID: 1

Read mode               : Secure
Utilize accurate stream : Yes
Defeat audio cache      : Yes
Make use of C2 pointers : No

Read offset correction                      : 48
Overread into Lead-In and Lead-Out          : No
Fill up missing offset samples with silence : Yes
Delete leading and trailing silent blocks   : No
Null samples used in CRC calculations       : Yes
Used interface                              : Native Win32 interface for Win NT & 2000
Gap handling                                : Appended to previous track

Used output format              : User Defined Encoder
Selected bitrate                : 1024 kBit/s
Quality                         : High
Add ID3 tag                     : No
Command line compressor         : C:\Program Files (x86)\Exact Audio Copy\Flac\flac.exe
Additional command line options : -8 -V -T "ARTIST=%artist%" -T "TITLE=%title%" -T "ALBUM=%albumtitle%" -T "DATE=%year%" -T "TRACKNUMBER=%tracknr%" -T "GENRE=%genre%" -T "PERFORMER=%albuminterpret%" -T "COMPOSER=%composer%" %haslyrics%--tag-from-file=LYRICS="%lyricsfile%"%haslyrics% -T "ALBUMARTIST=%albumartist%" -T "DISCNUMBER=%cdnumber%" -T "TOTALDISCS=%totalcds%" -T "TOTALTRACKS=%numtracks%" -T "COMMENT=%comment%" %source% -o %dest%

TOC of the extracted CD

     Track |   Start  |  Length  | Start sector | End sector
    ---------------------------------------------------------
        1  |  0:00.00 |  7:52.60 |         0    |    35459   
        2  |  7:52.60 |  6:36.36 |     35460    |    65195   
        3  | 14:29.21 |  9:13.02 |     65196    |   106672   
        4  | 23:42.23 |  8:42.48 |    106673    |   145870   
        5  | 32:24.71 |  7:45.20 |    145871    |   180765   
        6  | 40:10.16 |  6:36.29 |    180766    |   210494   
        7  | 46:46.45 |  9:47.26 |    210495    |   254545   
        8  | 56:33.71 |  8:14.22 |    254546    |   291617   
        9  | 64:48.18 |  7:09.33 |    291618    |   323825   

Track  1

     Filename C:\EACrips\Various - Promo Only Progressive Club - March 2000 (2000) [FLAC]\01 - Sonique - It Feels So Good (Serious Mix).wav

     Pre-gap length  0:00:02.00

     Peak level 98.8 %
     Extraction speed 10.9 X
     Track quality 100.0 %
     Test CRC 4543F22D
     Copy CRC 4543F22D
     Accurately ripped (confidence 1)  [1336EF16]  (AR v2)
     Copy OK

Track  2

     Filename C:\EACrips\Various - Promo Only Progressive Club - March 2000 (2000) [FLAC]\02 - Libra presents Taylor - Anomaly (Calling Your Name) (Ferry Corsten Remix).wav

     Pre-gap length  0:00:01.45

     Peak level 98.8 %
     Extraction speed 12.6 X
     Track quality 100.0 %
     Test CRC BCA9A5D6
     Copy CRC BCA9A5D6
     Accurately ripped (confidence 1)  [89AC8F6F]  (AR v2)
     Copy OK

Track  3

     Filename C:\EACrips\Various - Promo Only Progressive Club - March 2000 (2000) [FLAC]\03 - Z2 - I Want You (Original Mix).wav

     Pre-gap length  0:00:01.45

     Peak level 98.8 %
     Extraction speed 14.1 X
     Track quality 100.0 %
     Test CRC 7ACB18F9
     Copy CRC 7ACB18F9
     Accurately ripped (confidence 1)  [F12F837A]  (AR v2)
     Copy OK

Track  4

     Filename C:\EACrips\Various - Promo Only Progressive Club - March 2000 (2000) [FLAC]\04 - Babe Instinct - Fade To Grey (Scratch & Sniff Mix).wav

     Pre-gap length  0:00:01.45

     Peak level 100.0 %
     Extraction speed 15.6 X
     Track quality 100.0 %
     Test CRC 83EEFEE6
     Copy CRC 83EEFEE6
     Accurately ripped (confidence 1)  [9A930549]  (AR v2)
     Copy OK

Track  5

     Filename C:\EACrips\Various - Promo Only Progressive Club - March 2000 (2000) [FLAC]\05 - Amen vs. Rachel McFarlane - Lover (Amen 12'' Club Mix).wav

     Pre-gap length  0:00:01.45

     Peak level 98.8 %
     Extraction speed 16.7 X
     Track quality 100.0 %
     Test CRC 18EA1B89
     Copy CRC 18EA1B89
     Accurately ripped (confidence 1)  [DB80C58F]  (AR v2)
     Copy OK

Track  6

     Filename C:\EACrips\Various - Promo Only Progressive Club - March 2000 (2000) [FLAC]\06 - Nowa Nowa - Free Again (DJ Modelle & Elvira Remix).wav

     Pre-gap length  0:00:01.45

     Peak level 98.8 %
     Extraction speed 16.2 X
     Track quality 99.9 %
     Test CRC B0E030B7
     Copy CRC B0E030B7
     Accurately ripped (confidence 1)  [EE0016E0]  (AR v2)
     Copy OK

Track  7

     Filename C:\EACrips\Various - Promo Only Progressive Club - March 2000 (2000) [FLAC]\07 - Chicane feat. Bryan Adams - Don't Give Up (Disco Citizens vs. Tomski Remix).wav

     Pre-gap length  0:00:01.45

     Peak level 98.8 %
     Extraction speed 18.6 X
     Track quality 100.0 %
     Test CRC 856EA101
     Copy CRC 856EA101
     Accurately ripped (confidence 1)  [89014D56]  (AR v2)
     Copy OK

Track  8

     Filename C:\EACrips\Various - Promo Only Progressive Club - March 2000 (2000) [FLAC]\08 - Dario G - Voices (Kriana Mix).wav

     Pre-gap length  0:00:01.45

     Peak level 99.7 %
     Extraction speed 19.4 X
     Track quality 100.0 %
     Test CRC 8EFED8AD
     Copy CRC 8EFED8AD
     Accurately ripped (confidence 1)  [CBAD0BB8]  (AR v2)
     Copy OK

Track  9

     Filename C:\EACrips\Various - Promo Only Progressive Club - March 2000 (2000) [FLAC]\09 - CRW - I Feel Love (DJ JamX & De Leon Mix).wav

     Pre-gap length  0:00:01.45

     Peak level 97.7 %
     Extraction speed 20.3 X
     Track quality 100.0 %
     Test CRC 2E41BBD1
     Copy CRC 2E41BBD1
     Accurately ripped (confidence 1)  [A4BC1D6B]  (AR v2)
     Copy OK

All tracks accurately ripped

No errors occurred

End of status report

---- CUETools DB Plugin V2.1.3

[CTDB TOCID: 2Gx87gQWqGCjqxohhwmN7uiGzKQ-] disk not present in database, Submit result: 2Gx87gQWqGCjqxohhwmN7uiGzKQ- has been uploaded

==== Log checksum 1D71153C87F4BB33EC20E9027AC17D0FF5F0E8372F7D8C9130FAF9DC485850C0 ====

Страница 1 из 1

new_topic  reply_topic

Текущее время: 06-Май 20:05
Часовой пояс: GMT + 4

m Сделано с любовью PR-CY.ru Каталог webplus.info