Вход на сайт

Имя:
Пароль:

· Забыли пароль?
logo
Портал Форум
Регистрация Вход


new_topic  reply_topic

  (Trance) Various ‎– Promo Only Progressive Club: April 2000, FLAC (tracks + .cue), lossless

pic
Год выпуска: 2000
Страна: Uk
Производитель: uk
Жанр: Trance
Номер #: Promo Only (UK) ‎– POPC APR 00
Тип издания: сборник
Аудио кодек: FLAC
Тип рипа: (tracks + .cue)
Битрейт аудио: lossless

Треклист:

01) Timo Maas – Der Schieber (Original Mix)
02) Melt – Hard House Music (Original Mix)
03) Rank 1 – Airwave (Rank 1 Vs Dutch Force Mix)
04) Hurley & Todd – Sunstorm (Club Caviar Mix)
05) Tall Paul – Freebase (Original Mix)
06) Moby – Natural Blues (Olmec Heads Remix)
07) ATB – Killer (Lost Witness Dub)
08) Lock N' Load – Blow Ya Mind (Yomanda Mix)
09) Rhythm Of Life – You Put Me In Heaven With Your Touch (Lange Remix)
10) Ralph Fridge – Angel (Original Mix)


Доп. информация: (CD, Compilation, Promo) - Unmixed, Немиксованный сборник (все треки полные).
_______________________________________________
http://www.discogs.com/Various-Promo-Only-Progressive-Club-April-2000/release/1220555

Код:

Exact Audio Copy V1.0 beta 3 from 29. August 2011

EAC extraction logfile from 21. January 2012, 19:09

Various / Promo Only Progressive Club - April 2000

Used drive  : Optiarc DVDRWBD BC-5540H   Adapter: 0  ID: 1

Read mode               : Secure
Utilize accurate stream : Yes
Defeat audio cache      : Yes
Make use of C2 pointers : No

Read offset correction                      : 48
Overread into Lead-In and Lead-Out          : No
Fill up missing offset samples with silence : Yes
Delete leading and trailing silent blocks   : No
Null samples used in CRC calculations       : Yes
Used interface                              : Native Win32 interface for Win NT & 2000
Gap handling                                : Appended to previous track

Used output format              : User Defined Encoder
Selected bitrate                : 1024 kBit/s
Quality                         : High
Add ID3 tag                     : No
Command line compressor         : C:\Program Files (x86)\Exact Audio Copy\Flac\flac.exe
Additional command line options : -8 -V -T "ARTIST=%artist%" -T "TITLE=%title%" -T "ALBUM=%albumtitle%" -T "DATE=%year%" -T "TRACKNUMBER=%tracknr%" -T "GENRE=%genre%" -T "PERFORMER=%albuminterpret%" -T "COMPOSER=%composer%" %haslyrics%--tag-from-file=LYRICS="%lyricsfile%"%haslyrics% -T "ALBUMARTIST=%albumartist%" -T "DISCNUMBER=%cdnumber%" -T "TOTALDISCS=%totalcds%" -T "TOTALTRACKS=%numtracks%" -T "COMMENT=%comment%" %source% -o %dest%

TOC of the extracted CD

     Track |   Start  |  Length  | Start sector | End sector
    ---------------------------------------------------------
        1  |  0:00.00 |  7:59.24 |         0    |    35948   
        2  |  7:59.24 |  8:59.58 |     35949    |    76431   
        3  | 16:59.07 |  7:29.13 |     76432    |   110119   
        4  | 24:28.20 |  5:27.22 |    110120    |   134666   
        5  | 29:55.42 |  7:44.36 |    134667    |   169502   
        6  | 37:40.03 |  9:24.57 |    169503    |   211859   
        7  | 47:04.60 |  7:33.04 |    211860    |   245838   
        8  | 54:37.64 |  7:15.22 |    245839    |   278485   
        9  | 61:53.11 |  8:35.56 |    278486    |   317166   
       10  | 70:28.67 |  7:38.64 |    317167    |   351580   

Track  1

     Filename C:\EACrips\Various - Promo Only Progressive Club - April 2000 (2000) [FLAC]\01 - Timo Maas - Der Schieber (Original Mix).wav

     Pre-gap length  0:00:02.00

     Peak level 98.8 %
     Extraction speed 11.2 X
     Track quality 100.0 %
     Test CRC 15FF20A9
     Copy CRC 15FF20A9
     Track not present in AccurateRip database
     Copy OK

Track  2

     Filename C:\EACrips\Various - Promo Only Progressive Club - April 2000 (2000) [FLAC]\02 - Melt - Hard House Music (Original Mix).wav

     Pre-gap length  0:00:01.45

     Peak level 98.8 %
     Extraction speed 13.2 X
     Track quality 100.0 %
     Test CRC 64BB4F42
     Copy CRC 64BB4F42
     Track not present in AccurateRip database
     Copy OK

Track  3

     Filename C:\EACrips\Various - Promo Only Progressive Club - April 2000 (2000) [FLAC]\03 - Rank 1 - Airwave (Rank 1 vs. Dutch Force Mix).wav

     Pre-gap length  0:00:01.45

     Peak level 98.8 %
     Extraction speed 14.0 X
     Track quality 99.9 %
     Test CRC CF83A655
     Copy CRC CF83A655
     Track not present in AccurateRip database
     Copy OK

Track  4

     Filename C:\EACrips\Various - Promo Only Progressive Club - April 2000 (2000) [FLAC]\04 - Hurley & Todd - Sunstorm (Club Caviar Mix).wav

     Pre-gap length  0:00:01.45

     Peak level 98.8 %
     Extraction speed 15.4 X
     Track quality 100.0 %
     Test CRC B516C830
     Copy CRC B516C830
     Track not present in AccurateRip database
     Copy OK

Track  5

     Filename C:\EACrips\Various - Promo Only Progressive Club - April 2000 (2000) [FLAC]\05 - Tall Paul - Freebase (Original Mix).wav

     Pre-gap length  0:00:01.45

     Peak level 98.8 %
     Extraction speed 15.8 X
     Track quality 99.9 %
     Test CRC 4C6A83D8
     Copy CRC 4C6A83D8
     Track not present in AccurateRip database
     Copy OK

Track  6

     Filename C:\EACrips\Various - Promo Only Progressive Club - April 2000 (2000) [FLAC]\06 - Moby - Natural Blues (Olmec Heads Remix).wav

     Pre-gap length  0:00:01.45

     Peak level 98.8 %
     Extraction speed 17.0 X
     Track quality 99.9 %
     Test CRC 041CA12B
     Copy CRC 041CA12B
     Track not present in AccurateRip database
     Copy OK

Track  7

     Filename C:\EACrips\Various - Promo Only Progressive Club - April 2000 (2000) [FLAC]\07 - ATB - Killer (Lost Witness Dub).wav

     Pre-gap length  0:00:01.45

     Peak level 98.8 %
     Extraction speed 18.4 X
     Track quality 100.0 %
     Test CRC 2B07F2E9
     Copy CRC 2B07F2E9
     Track not present in AccurateRip database
     Copy OK

Track  8

     Filename C:\EACrips\Various - Promo Only Progressive Club - April 2000 (2000) [FLAC]\08 - Lock 'N Load - Blow Ya Mind (Yomanda Mix).wav

     Pre-gap length  0:00:01.45

     Peak level 98.8 %
     Extraction speed 19.1 X
     Track quality 100.0 %
     Test CRC C7BAD9C2
     Copy CRC C7BAD9C2
     Track not present in AccurateRip database
     Copy OK

Track  9

     Filename C:\EACrips\Various - Promo Only Progressive Club - April 2000 (2000) [FLAC]\09 - Rhythm Of Life - You Put Me In Heaven With Your Touch (Lange Remix).wav

     Pre-gap length  0:00:01.45

     Peak level 98.8 %
     Extraction speed 20.0 X
     Track quality 100.0 %
     Test CRC 55C4F6CA
     Copy CRC 55C4F6CA
     Track not present in AccurateRip database
     Copy OK

Track 10

     Filename C:\EACrips\Various - Promo Only Progressive Club - April 2000 (2000) [FLAC]\10 - Ralph Fridge - Angel (Original Mix).wav

     Pre-gap length  0:00:01.45

     Peak level 98.8 %
     Extraction speed 20.8 X
     Track quality 100.0 %
     Test CRC 3F41B26E
     Copy CRC 3F41B26E
     Track not present in AccurateRip database
     Copy OK

None of the tracks are present in the AccurateRip database

No errors occurred

End of status report

---- CUETools DB Plugin V2.1.3

[CTDB TOCID: 3vHO0ee37fUzhbkAUkMW3OwlUYg-] disk not present in database, Submit result: 3vHO0ee37fUzhbkAUkMW3OwlUYg- has been uploaded

==== Log checksum 83E86023E14D46648E8B5C621DDDB14A5EA55DABF799F058DBE295235BB66389 ====
I search one track of this

Страница 1 из 1

new_topic  reply_topic

Текущее время: 06-Май 20:01
Часовой пояс: GMT + 4

m Сделано с любовью PR-CY.ru Каталог webplus.info