Вход на сайт

Имя:
Пароль:

· Забыли пароль?
logo
Портал Форум
Регистрация Вход


new_topic  reply_topic

  (Trance) Various ‎– Promo Only Progressive Club: December 1999, FLAC (tracks + .cue), lossless

pic
Год выпуска: 1999
Страна: Uk
Производитель: Uk
Жанр: Trance
Номер #: Promo Only (UK) ‎– POPCDEC99
Тип издания: сборник
Аудио кодек: FLAC
Тип рипа: (tracks + .cue)
Битрейт аудио: lossless

Треклист:

01) Golden Girls – Kinetic '99 (Commie's Remix)
02) Gouryella – Walhalla (Original Mix)
03) Skip Raiders – Another Day (Perfecto Trance Mix)
04) Force Majeure – Redemption (Original Mix)
05) Lovechild – Gloria (Extended Mix)
06) Airscape – L'Esperanza (Sven Goes To The Love Paradise - Extended Mix)
07) CRW – I Feel Love (DJ JamX & De Leon Remix)
08) X-Cabs – Neuro '99 (Jon '00' Fleming Mix)
09) Paul Van Dyk – Another Way (PvD Sessions Mix One)


Доп. информация: (CD, Compilation, Promo) - Unmixed, Немиксованный сборник (все треки полные).
_______________________________________________
http://www.discogs.com/Various-Promo-Only-Progressive-Club-December-99/release/2163157

Код:

Exact Audio Copy V1.0 beta 3 from 29. August 2011

EAC extraction logfile from 21. January 2012, 18:03

Various / Promo Only Progressive Club - December 1999

Used drive  : Optiarc DVDRWBD BC-5540H   Adapter: 0  ID: 1

Read mode               : Secure
Utilize accurate stream : Yes
Defeat audio cache      : Yes
Make use of C2 pointers : No

Read offset correction                      : 48
Overread into Lead-In and Lead-Out          : No
Fill up missing offset samples with silence : Yes
Delete leading and trailing silent blocks   : No
Null samples used in CRC calculations       : Yes
Used interface                              : Native Win32 interface for Win NT & 2000
Gap handling                                : Appended to previous track

Used output format              : User Defined Encoder
Selected bitrate                : 1024 kBit/s
Quality                         : High
Add ID3 tag                     : No
Command line compressor         : C:\Program Files (x86)\Exact Audio Copy\Flac\flac.exe
Additional command line options : -8 -V -T "ARTIST=%artist%" -T "TITLE=%title%" -T "ALBUM=%albumtitle%" -T "DATE=%year%" -T "TRACKNUMBER=%tracknr%" -T "GENRE=%genre%" -T "PERFORMER=%albuminterpret%" -T "COMPOSER=%composer%" %haslyrics%--tag-from-file=LYRICS="%lyricsfile%"%haslyrics% -T "ALBUMARTIST=%albumartist%" -T "DISCNUMBER=%cdnumber%" -T "TOTALDISCS=%totalcds%" -T "TOTALTRACKS=%numtracks%" -T "COMMENT=%comment%" %source% -o %dest%

TOC of the extracted CD

     Track |   Start  |  Length  | Start sector | End sector
    ---------------------------------------------------------
        1  |  0:00.00 |  6:04.18 |         0    |    27317   
        2  |  6:04.18 |  8:06.22 |     27318    |    63789   
        3  | 14:10.40 | 11:38.48 |     63790    |   116187   
        4  | 25:49.13 |  7:15.35 |    116188    |   148847   
        5  | 33:04.48 |  7:15.32 |    148848    |   181504   
        6  | 40:20.05 |  7:21.27 |    181505    |   214606   
        7  | 47:41.32 |  7:10.68 |    214607    |   246924   
        8  | 54:52.25 | 10:35.35 |    246925    |   294584   
        9  | 65:27.60 |  9:35.08 |    294585    |   337717   

Track  1

     Filename C:\EACrips\Various - Promo Only Progressive Club - December 1999 (1999) [FLAC]\01 - Golden Girls - Kinetic '99 (Commie's Remix).wav

     Pre-gap length  0:00:02.00

     Peak level 96.8 %
     Extraction speed 10.6 X
     Track quality 100.0 %
     Test CRC 8CE27E1A
     Copy CRC 8CE27E1A
     Track not present in AccurateRip database
     Copy OK

Track  2

     Filename C:\EACrips\Various - Promo Only Progressive Club - December 1999 (1999) [FLAC]\02 - Gouryella - Walhalla (Original Mix).wav

     Pre-gap length  0:00:01.45

     Peak level 98.8 %
     Extraction speed 12.4 X
     Track quality 100.0 %
     Test CRC DA7DC2CE
     Copy CRC DA7DC2CE
     Track not present in AccurateRip database
     Copy OK

Track  3

     Filename C:\EACrips\Various - Promo Only Progressive Club - December 1999 (1999) [FLAC]\03 - Skip Raiders - Another Day (Perfecto Trance Mix).wav

     Pre-gap length  0:00:01.45

     Peak level 98.8 %
     Extraction speed 14.3 X
     Track quality 100.0 %
     Test CRC 3DF70753
     Copy CRC 3DF70753
     Track not present in AccurateRip database
     Copy OK

Track  4

     Filename C:\EACrips\Various - Promo Only Progressive Club - December 1999 (1999) [FLAC]\04 - Force Majeure - Redemption (Original Mix).wav

     Pre-gap length  0:00:01.45

     Peak level 98.8 %
     Extraction speed 15.6 X
     Track quality 100.0 %
     Test CRC A12D8132
     Copy CRC A12D8132
     Track not present in AccurateRip database
     Copy OK

Track  5

     Filename C:\EACrips\Various - Promo Only Progressive Club - December 1999 (1999) [FLAC]\05 - Lovechild - Gloria (Extended Mix).wav

     Pre-gap length  0:00:01.45

     Peak level 98.8 %
     Extraction speed 16.6 X
     Track quality 100.0 %
     Test CRC 3C715E7A
     Copy CRC 3C715E7A
     Track not present in AccurateRip database
     Copy OK

Track  6

     Filename C:\EACrips\Various - Promo Only Progressive Club - December 1999 (1999) [FLAC]\06 - Airscape - L'Esperanza (Svenson Goes To The Love Parade).wav

     Pre-gap length  0:00:01.45

     Peak level 98.8 %
     Extraction speed 17.5 X
     Track quality 100.0 %
     Test CRC E57A99FA
     Copy CRC E57A99FA
     Track not present in AccurateRip database
     Copy OK

Track  7

     Filename C:\EACrips\Various - Promo Only Progressive Club - December 1999 (1999) [FLAC]\07 - CRW - I Feel Love (DJ JamX & De Leon Remix).wav

     Pre-gap length  0:00:01.45

     Peak level 98.8 %
     Extraction speed 17.2 X
     Track quality 99.9 %
     Test CRC 9271174E
     Copy CRC 9271174E
     Track not present in AccurateRip database
     Copy OK

Track  8

     Filename C:\EACrips\Various - Promo Only Progressive Club - December 1999 (1999) [FLAC]\08 - X-Cabs - Neuro '99 (Jon '00' Fleming Mix).wav

     Pre-gap length  0:00:01.45

     Peak level 98.8 %
     Extraction speed 18.3 X
     Track quality 99.9 %
     Test CRC 39034308
     Copy CRC 39034308
     Track not present in AccurateRip database
     Copy OK

Track  9

     Filename C:\EACrips\Various - Promo Only Progressive Club - December 1999 (1999) [FLAC]\09 - Paul Van Dyk - Another Way (PvD Sessions Mix One).wav

     Pre-gap length  0:00:01.45

     Peak level 100.0 %
     Extraction speed 20.4 X
     Track quality 100.0 %
     Test CRC B287D9C6
     Copy CRC B287D9C6
     Track not present in AccurateRip database
     Copy OK

None of the tracks are present in the AccurateRip database

No errors occurred

End of status report

---- CUETools DB Plugin V2.1.3

[CTDB TOCID: Z9uCwibpGAvRMKvPDIVKcGgcczU-] disk not present in database, Submit result: Z9uCwibpGAvRMKvPDIVKcGgcczU- has been uploaded

==== Log checksum A82BBDF7C5C05C64A4C976915F96EC633193C1C3E8AD466D133F412003324028 ====

Страница 1 из 1

new_topic  reply_topic

Текущее время: 06-Май 19:53
Часовой пояс: GMT + 4

m Сделано с любовью PR-CY.ru Каталог webplus.info