Вход на сайт

Имя:
Пароль:

· Забыли пароль?
logo
Портал Форум
Регистрация Вход


new_topic  reply_topic

  (Trance) Various ‎– Promo Only Progressive Club: November 1999, FLAC (tracks + .cue), lossless

pic
Год выпуска: 1999
Страна: Uk
Производитель: Uk
Жанр: Trance
Номер #: Promo Only (UK) ‎– POPC NOV 99
Тип издания: сборник
Аудио кодек: FLAC
Тип рипа: (tracks + .cue)
Битрейт аудио: lossless

Треклист:

01) Fragma – Toca Me (Club Mix)
02) BT – Mercury & Solace (12" Mix)
03) Moby – Why Does My Heart Feel So Bad (Ferry Corsten Mix)
04) Kayestone – The Warning (Original Mix)
05) Gigolo – Al Paradis (Original Mix)
06) Planet Perfecto – Bullet In The Gun (Mekka vs. Trouser Enthusiasts)
07) Amethyst – Futura (Aircom's Purple World Mix)
08) Paul Van Dyk – Avenue (Original Mix)
09) TR Junior – Rock With Me (Lange Vocal Mix)
10) Kriana – The Weekend Has Landed (Original Mix)


Доп. информация: (CD, Compilation, Promo) - Unmixed, Немиксованный сборник (все треки полные).
_______________________________________________
http://www.discogs.com/Various-Promo-Only-Progressive-Club-November-99/release/1221070

Код:

Exact Audio Copy V1.0 beta 3 from 29. August 2011

EAC extraction logfile from 21. January 2012, 17:39

Various / Promo Only Progressive Club - November 1999

Used drive  : Optiarc DVDRWBD BC-5540H   Adapter: 0  ID: 1

Read mode               : Secure
Utilize accurate stream : Yes
Defeat audio cache      : Yes
Make use of C2 pointers : No

Read offset correction                      : 48
Overread into Lead-In and Lead-Out          : No
Fill up missing offset samples with silence : Yes
Delete leading and trailing silent blocks   : No
Null samples used in CRC calculations       : Yes
Used interface                              : Native Win32 interface for Win NT & 2000
Gap handling                                : Appended to previous track

Used output format              : User Defined Encoder
Selected bitrate                : 1024 kBit/s
Quality                         : High
Add ID3 tag                     : No
Command line compressor         : C:\Program Files (x86)\Exact Audio Copy\Flac\flac.exe
Additional command line options : -8 -V -T "ARTIST=%artist%" -T "TITLE=%title%" -T "ALBUM=%albumtitle%" -T "DATE=%year%" -T "TRACKNUMBER=%tracknr%" -T "GENRE=%genre%" -T "PERFORMER=%albuminterpret%" -T "COMPOSER=%composer%" %haslyrics%--tag-from-file=LYRICS="%lyricsfile%"%haslyrics% -T "ALBUMARTIST=%albumartist%" -T "DISCNUMBER=%cdnumber%" -T "TOTALDISCS=%totalcds%" -T "TOTALTRACKS=%numtracks%" -T "COMMENT=%comment%" %source% -o %dest%

TOC of the extracted CD

     Track |   Start  |  Length  | Start sector | End sector
    ---------------------------------------------------------
        1  |  0:00.00 |  5:45.32 |         0    |    25906   
        2  |  5:45.32 |  8:23.50 |     25907    |    63681   
        3  | 14:09.07 |  6:41.52 |     63682    |    93808   
        4  | 20:50.59 |  8:06.58 |     93809    |   130316   
        5  | 28:57.42 |  6:57.36 |    130317    |   161627   
        6  | 35:55.03 |  7:07.30 |    161628    |   193682   
        7  | 43:02.33 |  7:58.38 |    193683    |   229570   
        8  | 51:00.71 |  9:20.58 |    229571    |   271628   
        9  | 60:21.54 |  7:15.31 |    271629    |   304284   
       10  | 67:37.10 |  7:32.10 |    304285    |   338194   

Track  1

     Filename C:\EACrips\Various - Promo Only Progressive Club - November 1999 (1999) [FLAC]\01 - Fragma - Toca Me (Club Mix).wav

     Pre-gap length  0:00:02.00

     Peak level 98.9 %
     Extraction speed 10.6 X
     Track quality 100.0 %
     Test CRC B69BA366
     Copy CRC B69BA366
     Track not present in AccurateRip database
     Copy OK

Track  2

     Filename C:\EACrips\Various - Promo Only Progressive Club - November 1999 (1999) [FLAC]\02 - BT - Mercury & Solace (12'' Mix).wav

     Pre-gap length  0:00:01.45

     Peak level 98.8 %
     Extraction speed 11.9 X
     Track quality 99.9 %
     Test CRC 9B08E6A3
     Copy CRC 9B08E6A3
     Track not present in AccurateRip database
     Copy OK

Track  3

     Filename C:\EACrips\Various - Promo Only Progressive Club - November 1999 (1999) [FLAC]\03 - Moby - Why Does My Heart Feel So Bad (Ferry Corsten Mix).wav

     Pre-gap length  0:00:01.45

     Peak level 98.8 %
     Extraction speed 13.1 X
     Track quality 99.9 %
     Test CRC C7F30739
     Copy CRC C7F30739
     Track not present in AccurateRip database
     Copy OK

Track  4

     Filename C:\EACrips\Various - Promo Only Progressive Club - November 1999 (1999) [FLAC]\04 - Kayestone - The Warning (Original Mix).wav

     Pre-gap length  0:00:01.45

     Peak level 98.8 %
     Extraction speed 15.1 X
     Track quality 100.0 %
     Test CRC 13165D15
     Copy CRC 13165D15
     Track not present in AccurateRip database
     Copy OK

Track  5

     Filename C:\EACrips\Various - Promo Only Progressive Club - November 1999 (1999) [FLAC]\05 - Gigolo - Al Paradis (Original Mix).wav

     Pre-gap length  0:00:01.45

     Peak level 98.8 %
     Extraction speed 16.1 X
     Track quality 100.0 %
     Test CRC FA89404C
     Copy CRC FA89404C
     Track not present in AccurateRip database
     Copy OK

Track  6

     Filename C:\EACrips\Various - Promo Only Progressive Club - November 1999 (1999) [FLAC]\06 - Planet Perfecto - Bullet In The Gun (Mekka vs Trouser Enthusiasts - Short).wav

     Pre-gap length  0:00:01.45

     Peak level 98.8 %
     Extraction speed 17.0 X
     Track quality 100.0 %
     Test CRC 0D947E24
     Copy CRC 0D947E24
     Track not present in AccurateRip database
     Copy OK

Track  7

     Filename C:\EACrips\Various - Promo Only Progressive Club - November 1999 (1999) [FLAC]\07 - Amethyst - Futura (Aircom's Purple World Mix).wav

     Pre-gap length  0:00:01.45

     Peak level 98.8 %
     Extraction speed 17.9 X
     Track quality 100.0 %
     Test CRC C78E6FC6
     Copy CRC C78E6FC6
     Track not present in AccurateRip database
     Copy OK

Track  8

     Filename C:\EACrips\Various - Promo Only Progressive Club - November 1999 (1999) [FLAC]\08 - Paul Van Dyk - Avenue (Original Mix).wav

     Pre-gap length  0:00:01.45

     Peak level 98.8 %
     Extraction speed 18.8 X
     Track quality 100.0 %
     Test CRC 464D8135
     Copy CRC 464D8135
     Track not present in AccurateRip database
     Copy OK

Track  9

     Filename C:\EACrips\Various - Promo Only Progressive Club - November 1999 (1999) [FLAC]\09 - TR Junior - Rock With Me (Lange Vocal Mix).wav

     Pre-gap length  0:00:01.45

     Peak level 98.8 %
     Extraction speed 19.5 X
     Track quality 100.0 %
     Test CRC CAF63FD5
     Copy CRC CAF63FD5
     Track not present in AccurateRip database
     Copy OK

Track 10

     Filename C:\EACrips\Various - Promo Only Progressive Club - November 1999 (1999) [FLAC]\10 - Kriana - The Weekend Has Landed (Original Mix).wav

     Pre-gap length  0:00:01.45

     Peak level 98.8 %
     Extraction speed 20.4 X
     Track quality 100.0 %
     Test CRC 4B45628D
     Copy CRC 4B45628D
     Track not present in AccurateRip database
     Copy OK

None of the tracks are present in the AccurateRip database

No errors occurred

End of status report

---- CUETools DB Plugin V2.1.3

[CTDB TOCID: zcc1PCFLpCF6kYq0vyiui4XrwyA-] disk not present in database, Submit result: zcc1PCFLpCF6kYq0vyiui4XrwyA- has been uploaded

==== Log checksum 372AAECCAA72DD5B066EDB7F46415A5E0D26A0F394AE7F458D26B38136F65DD7 ====

Страница 1 из 1

new_topic  reply_topic

Текущее время: 06-Май 19:45
Часовой пояс: GMT + 4

m Сделано с любовью PR-CY.ru Каталог webplus.info