Вход на сайт

Имя:
Пароль:

· Забыли пароль?
logo
Портал Форум
Регистрация Вход


new_topic  reply_topic

  (House) Various ‎– Promo Only Import Club: September '99, (Compilation, Unmixed), 1999, FLAC (tracks + .cue), lossless

pic
Год выпуска: 1999
Страна: Us
Производитель: Us
Жанр: House
Номер #: Promo Only ‎– SEPT99IC
Аудио кодек: FLAC
Тип рипа: (tracks + .cue)
Битрейт аудио: lossless

Треклист:

01. Moogwai – A Night Out (Original Mix)
02. AMbassador – The Fade (Oliver Lieb Remix)
03. Vimana – Dreamtime (Original Mix)
04. Heliotropic featuring Verna V – Alive (Matt Darey Remix)
05. Donna Summer – I Will Go With You (Trouser Enthusiasts' Twisted Kiss Mix)
06. Cascade – Somewhere Out There (Original Mix)
07. Lange – I Believe (Original Mix)
08. Kenneth Heuvel – The Hill (Vocal Mix)
09. The Def Set – Ogo (The Digital Blonde's End of an Era Mix)
10. Six Times Platinum – http://elements (Radium Remix)


Доп. информация:
_______________________________________________
http://www.discogs.com/Various-Promo-Only-Import-Club-September-99/release/3357960

Код:

Exact Audio Copy V1.0 beta 3 from 29. August 2011

EAC extraction logfile from 30. August 2012, 11:15

Various / Promo Only Import Club - September 1999

Used drive  : Optiarc DVD+-RW AD-7560S   Adapter: 1  ID: 0

Read mode               : Secure
Utilize accurate stream : Yes
Defeat audio cache      : Yes
Make use of C2 pointers : No

Read offset correction                      : 6
Overread into Lead-In and Lead-Out          : No
Fill up missing offset samples with silence : Yes
Delete leading and trailing silent blocks   : No
Null samples used in CRC calculations       : Yes
Used interface                              : Native Win32 interface for Win NT & 2000
Gap handling                                : Appended to previous track

Used output format              : User Defined Encoder
Selected bitrate                : 1024 kBit/s
Quality                         : High
Add ID3 tag                     : No
Command line compressor         : C:\Program Files (x86)\Exact Audio Copy\Flac\flac.exe
Additional command line options : -8 -V -T "ARTIST=%artist%" -T "TITLE=%title%" -T "ALBUM=%albumtitle%" -T "DATE=%year%" -T "TRACKNUMBER=%tracknr%" -T "GENRE=%genre%" -T "PERFORMER=%albuminterpret%" -T "COMPOSER=%composer%" %haslyrics%--tag-from-file=LYRICS="%lyricsfile%"%haslyrics% -T "ALBUMARTIST=%albumartist%" -T "DISCNUMBER=%cdnumber%" -T "TOTALDISCS=%totalcds%" -T "TOTALTRACKS=%numtracks%" -T "COMMENT=%comment%" %source% -o %dest%

TOC of the extracted CD

     Track |   Start  |  Length  | Start sector | End sector
    ---------------------------------------------------------
        1  |  0:00.00 |  6:36.15 |         0    |    29714   
        2  |  6:36.15 |  7:12.46 |     29715    |    62160   
        3  | 13:48.61 |  5:48.36 |     62161    |    88296   
        4  | 19:37.22 |  8:54.74 |     88297    |   128420   
        5  | 28:32.21 | 10:16.72 |    128421    |   174692   
        6  | 38:49.18 |  8:27.68 |    174693    |   212785   
        7  | 47:17.11 |  7:58.06 |    212786    |   248641   
        8  | 55:15.17 |  6:18.10 |    248642    |   277001   
        9  | 61:33.27 |  7:54.33 |    277002    |   312584   
       10  | 69:27.60 |  6:07.18 |    312585    |   340127   

Track  1

     Filename D:\Compiliation\[Flac] Various - Promo Only Import Club - September 1999\01 - Moogwai - A Night Out (Original Mix).wav

     Pre-gap length  0:00:02.00

     Peak level 99.7 %
     Extraction speed 1.8 X
     Track quality 100.0 %
     Test CRC 58B4DC6C
     Copy CRC 58B4DC6C
     Cannot be verified as accurate (confidence 1)  [EAE26DB3], AccurateRip returned [62DE4C92]  (AR v2)
     Copy OK

Track  2

     Filename D:\Compiliation\[Flac] Various - Promo Only Import Club - September 1999\02 - AMbassador - Fade (Oliver Lieb Mix).wav

     Peak level 98.7 %
     Extraction speed 2.9 X
     Track quality 100.0 %
     Test CRC E0E7A843
     Copy CRC E0E7A843
     Cannot be verified as accurate (confidence 1)  [E0B03EBD], AccurateRip returned [658EE0AA]  (AR v2)
     Copy OK

Track  3

     Filename D:\Compiliation\[Flac] Various - Promo Only Import Club - September 1999\03 - Vimana - Dreamtime (Original Mix).wav

     Peak level 98.8 %
     Extraction speed 4.5 X
     Track quality 100.0 %
     Test CRC 10CC0943
     Copy CRC 10CC0943
     Cannot be verified as accurate (confidence 1)  [586D406B], AccurateRip returned [910BCD86]  (AR v2)
     Copy OK

Track  4

     Filename D:\Compiliation\[Flac] Various - Promo Only Import Club - September 1999\04 - Heliotropic - Alive (Matt Darey Remix).wav

     Peak level 98.8 %
     Extraction speed 5.7 X
     Track quality 100.0 %
     Test CRC 5ECEDAFB
     Copy CRC 5ECEDAFB
     Cannot be verified as accurate (confidence 1)  [1CEAC61D], AccurateRip returned [A0B23F6F]  (AR v2)
     Copy OK

Track  5

     Filename D:\Compiliation\[Flac] Various - Promo Only Import Club - September 1999\05 - Donna Summer - I Will Go With You (Trouser Enthusiasts' Twisted Kiss Mix).wav

     Peak level 98.8 %
     Extraction speed 7.3 X
     Track quality 100.0 %
     Test CRC 5602E6B4
     Copy CRC 5602E6B4
     Cannot be verified as accurate (confidence 1)  [6943F05A], AccurateRip returned [EB76D854]  (AR v2)
     Copy OK

Track  6

     Filename D:\Compiliation\[Flac] Various - Promo Only Import Club - September 1999\06 - Cascade - Somewhere Out There (Original Mix).wav

     Peak level 98.8 %
     Extraction speed 5.1 X
     Track quality 100.0 %
     Test CRC 58FB8FC6
     Copy CRC 58FB8FC6
     Cannot be verified as accurate (confidence 1)  [EC47CCEB], AccurateRip returned [D3261652]  (AR v2)
     Copy OK

Track  7

     Filename D:\Compiliation\[Flac] Various - Promo Only Import Club - September 1999\07 - Lange - I Believe (Original Mix).wav

     Peak level 98.5 %
     Extraction speed 4.0 X
     Track quality 99.9 %
     Test CRC 753D30C2
     Copy CRC 753D30C2
     Cannot be verified as accurate (confidence 1)  [87EA2F5D], AccurateRip returned [18C9B80E]  (AR v2)
     Copy OK

Track  8

     Filename D:\Compiliation\[Flac] Various - Promo Only Import Club - September 1999\08 - Kenneth Heuvel - The Hill (Vocal Mix).wav

     Peak level 99.4 %
     Extraction speed 5.5 X
     Track quality 99.9 %
     Test CRC 207891DD
     Copy CRC 207891DD
     Cannot be verified as accurate (confidence 1)  [B3476115], AccurateRip returned [2A90FD5E]  (AR v2)
     Copy OK

Track  9

     Filename D:\Compiliation\[Flac] Various - Promo Only Import Club - September 1999\09 - The Def Set - Ogo (The Digital Blonde's End of an Era Mix).wav

     Peak level 98.8 %
     Extraction speed 2.2 X
     Track quality 99.9 %
     Test CRC B7EF6F1A
     Copy CRC B7EF6F1A
     Cannot be verified as accurate (confidence 1)  [42B1C287], AccurateRip returned [1569A932]  (AR v2)
     Copy OK

Track 10

     Filename D:\Compiliation\[Flac] Various - Promo Only Import Club - September 1999\10 - Six Times Platinum - http-,,elements (Radium Remix).wav

     Peak level 98.8 %
     Extraction speed 5.9 X
     Track quality 100.0 %
     Test CRC 0275820F
     Copy CRC 0275820F
     Cannot be verified as accurate (confidence 1)  [A866E64A], AccurateRip returned [B8841F5A]  (AR v2)
     Copy OK

No tracks could be verified as accurate
You may have a different pressing from the one(s) in the database

No errors occurred

End of status report

---- CUETools DB Plugin V2.1.3

[CTDB TOCID: dYjEMoFMBzq_.8MND2z4_LanDeQ-] disk not present in database, Submit result: dYjEMoFMBzq_.8MND2z4_LanDeQ- has been uploaded

==== Log checksum DA7F32DC9E8CE276C54E3CFE23BAF9610C35961378FC76A165E5C7AC7B897911 ====

Страница 1 из 1

new_topic  reply_topic

Текущее время: 06-Май 20:09
Часовой пояс: GMT + 4

m Сделано с любовью PR-CY.ru Каталог webplus.info