Вход на сайт

Имя:
Пароль:

· Забыли пароль?
logo
Портал Форум
Регистрация Вход


new_topic  reply_topic

  (House, Hard House) Various - Pure Trance & Hard House Anthems, (5 × CD, Compilation) 2001, FLAC (tracks + .cue), lossless

pic
Год выпуска: 2001
Страна: Uk
Производитель: Cartel
Жанр: House, Hard House
Номер #: PURECRCD11
Тип издания: сборник
Аудио кодек: FLAC
Тип рипа: (tracks + .cue)
Битрейт аудио: lossless

Треклист: CD-01

01) Tony De Vit - Are We All Ready
02) Pete Wardman - Lizard Queen
03) Redskin - Twister
04) Southside Productions - Transformations
05) Simon G - Just For You
06) Roberto Lastila - Delirious (DJ Sasima Mix)
07) Haus - Uprising Rhythm
08) Bliss Inc* - Faith (Rachael Auburn Mix)
09) Clear Cut - Transitions
10) Aqua Delta - Where Now (Delta Mix)


Треклист: CD-02

01) Fuego El Diablo (Madam Friction)
02) Red Zone - Mile High
03) John Paul* - Foresight
04) Sonic 303 - Justice
05) Knuckleheadz - House Rocca
06) DJ Van Der Holt - Pysncopit (Holt Mix)
07) Strongline - Feel
08) Tone - Savage Beast
09) Alter Ego - Reach Up
10) Hammer & Tongs - Duality


Треклист: CD-03

01) Fergie - Friction
02) Sven Taucker* - Illusions
03) ZX1 - Below Zero
04) Sven Gattius - Links To Your Mind (Night Mix)
05) Knuckleheadz - Raise Your Hands
06) Spirit Technicians - Faze 2 (Spirit Mix)
07) Peace By Piece - Pursuit
08) Linear - Headstrong
09) Ashfield Cardiac Motion
10) OD 404* - Let Me Tell You Something


Треклист: CD-04

01) Phlash! - RoK Da Discotek
02) SNG - Airbourne
03) Aqua Delta - Running
04) Liquid Life - Musika
05) Don* & DJ Rolf* - Rock Your Body
06) Faze - Section 17
07) Fleece - High On Life
08) X Pose*- Hold On (Higher Mix)
09) Red Zone - Tomorrow
10) Ian M - Dreamer (Pants & Corset Rmx)


Треклист: CD-05

01) Pants & Corset - Dammit Janet
02) 2 Tone - Lost Planet
03) TM 67 - Nastriok
04) Future Movement - Soundscpes
05) OD 404* - D Funked
06) UNK Project - Hear Me Now (Big Time Rmx)
07) DJ Dries - Doin' Time (Stompin Mix)
08) Brainlink - Timezone
09) Jon The Dentist Vs Ollie Jay* - Imagination 2000 (Remix)
10) Indise - Nu Tronic


Доп. информация: 5CD BoxSet: UnMixed, Полные треки (FullTracks)
_______________________________________________
http://www.discogs.com/Various-Pure-Trance-And-Hard-House-Anthems/release/1922847

Код:

Exact Audio Copy V1.0 beta 3 from 29. August 2011

Отчёт EAC об извлечении, выполненном 27. марта 2013, 9:18

VA  - Pure Trance & Hard House Anthems 2000 CD-01 / VA  - Pure Trance & Hard House Anthems 2000 CD-01

Дисковод: TSSTcorpBDDVDW SE-506AB   Adapter: 2  ID: 0

Режим чтения                 : Достоверность
Использование точного потока : Да
Отключение кэша аудио        : Да
Использование указателей C2  : Нет

Коррекция смещения при чтении                     : 6
Способность читать области Lead-in и Lead-out     : Нет
Заполнение пропущенных сэмплов тишиной            : Да
Удаление блоков с тишиной в начале и конце        : Нет
При вычислениях CRC использовались нулевые сэмплы : Да
Интерфейс                                         : Встроенный Win32-интерфейс для Win NT/2000
Обработка зазоров                                 : Добавлено к предыдущему треку

Выходной формат : Внутренние WAV-операции
Формат сэмплов  : 44.100 Гц; 16 бит; стерео

TOC извлечённого CD

     Трек |   Старт  | Длительность | Начальный сектор | Конечный сектор
    ---------------------------------------------------------------------
       1  |  0:00.00 |    9:28.48   |           0      |      42647     
       2  |  9:28.48 |    7:22.06   |       42648      |      75803     
       3  | 16:50.54 |    5:15.61   |       75804      |      99489     
       4  | 22:06.40 |    6:10.09   |       99490      |     127248     
       5  | 28:16.49 |    5:31.74   |      127249      |     152147     
       6  | 33:48.48 |    5:06.73   |      152148      |     175170     
       7  | 38:55.46 |    5:37.64   |      175171      |     200509     
       8  | 44:33.35 |    7:31.48   |      200510      |     234382     
       9  | 52:05.08 |    5:25.36   |      234383      |     258793     
      10  | 57:30.44 |    5:23.41   |      258794      |     283059     

Трек  1

     Имя файла Z:\[HD]\- [Base House] [VA & CDM]\[Сборники]\[Flac] Va - Pure Trance & Hard House Anthems\Va - CD - 01\(01) [Tony De Vit] - Are We all Ready.wav

     Длина предзазора  0:00:02.00

     Пиковый уровень 100.0 %
     Скорость извлечения 2.4 X
     Качество трека 100.0 %
     CRC теста 5C2C36C7
     CRC копии 5C2C36C7
     Трек не обнаружен в базе AccurateRip
     Копирование... OK

Трек  2

     Имя файла Z:\[HD]\- [Base House] [VA & CDM]\[Сборники]\[Flac] Va - Pure Trance & Hard House Anthems\Va - CD - 01\(02) [Pete Wardman] - Lizard Queen.wav

     Длина предзазора  0:00:01.51

     Пиковый уровень 100.0 %
     Скорость извлечения 2.8 X
     Качество трека 100.0 %
     CRC теста 3A5441B1
     CRC копии 3A5441B1
     Трек не обнаружен в базе AccurateRip
     Копирование... OK

Трек  3

     Имя файла Z:\[HD]\- [Base House] [VA & CDM]\[Сборники]\[Flac] Va - Pure Trance & Hard House Anthems\Va - CD - 01\(03) [Redskin] - Twister.wav

     Длина предзазора  0:00:01.51

     Пиковый уровень 100.0 %
     Скорость извлечения 1.9 X
     Качество трека 100.0 %
     CRC теста F4A90910
     CRC копии F4A90910
     Трек не обнаружен в базе AccurateRip
     Копирование... OK

Трек  4

     Имя файла Z:\[HD]\- [Base House] [VA & CDM]\[Сборники]\[Flac] Va - Pure Trance & Hard House Anthems\Va - CD - 01\(04) [Southside Productions] - Transformations.wav

     Длина предзазора  0:00:01.51

     Пиковый уровень 97.0 %
     Скорость извлечения 3.7 X
     Качество трека 100.0 %
     CRC теста 3E30CCBE
     CRC копии 3E30CCBE
     Трек не обнаружен в базе AccurateRip
     Копирование... OK

Трек  5

     Имя файла Z:\[HD]\- [Base House] [VA & CDM]\[Сборники]\[Flac] Va - Pure Trance & Hard House Anthems\Va - CD - 01\(05) [Simon G.] - Just for you.wav

     Длина предзазора  0:00:01.51

     Пиковый уровень 100.0 %
     Скорость извлечения 2.0 X
     Качество трека 99.9 %
     CRC теста 123DD992
     CRC копии 123DD992
     Трек не обнаружен в базе AccurateRip
     Копирование... OK

Трек  6

     Имя файла Z:\[HD]\- [Base House] [VA & CDM]\[Сборники]\[Flac] Va - Pure Trance & Hard House Anthems\Va - CD - 01\(06) [Roberto Lastila] - Delirious (DJ Sasima mix).wav

     Длина предзазора  0:00:01.51

     Пиковый уровень 100.0 %
     Скорость извлечения 2.6 X
     Качество трека 99.8 %
     CRC теста 12FEE421
     CRC копии 12FEE421
     Трек не обнаружен в базе AccurateRip
     Копирование... OK

Трек  7

     Имя файла Z:\[HD]\- [Base House] [VA & CDM]\[Сборники]\[Flac] Va - Pure Trance & Hard House Anthems\Va - CD - 01\(07) [Haus] - Uprising Rhythm.wav

     Длина предзазора  0:00:01.51

     Пиковый уровень 100.0 %
     Скорость извлечения 4.8 X
     Качество трека 100.0 %
     CRC теста 56A69AA9
     CRC копии 56A69AA9
     Трек не обнаружен в базе AccurateRip
     Копирование... OK

Трек  8

     Имя файла Z:\[HD]\- [Base House] [VA & CDM]\[Сборники]\[Flac] Va - Pure Trance & Hard House Anthems\Va - CD - 01\(08) [Bliss Inc.] - Faith (Rachael Auburn mix).wav

     Длина предзазора  0:00:01.51

     Пиковый уровень 100.0 %
     Скорость извлечения 4.5 X
     Качество трека 99.9 %
     CRC теста 148DB5F7
     CRC копии 148DB5F7
     Трек не обнаружен в базе AccurateRip
     Копирование... OK

Трек  9

     Имя файла Z:\[HD]\- [Base House] [VA & CDM]\[Сборники]\[Flac] Va - Pure Trance & Hard House Anthems\Va - CD - 01\(09) [Clear Cut] - Transitions.wav

     Длина предзазора  0:00:01.51

     Пиковый уровень 100.0 %
     Скорость извлечения 5.2 X
     Качество трека 100.0 %
     CRC теста 2F2ACA5B
     CRC копии 2F2ACA5B
     Трек не обнаружен в базе AccurateRip
     Копирование... OK

Трек 10

     Имя файла Z:\[HD]\- [Base House] [VA & CDM]\[Сборники]\[Flac] Va - Pure Trance & Hard House Anthems\Va - CD - 01\(10) [Aqua Delta] - Where Now (Delta mix).wav

     Длина предзазора  0:00:01.51

     Пиковый уровень 100.0 %
     Скорость извлечения 3.5 X
     Качество трека 99.9 %
     CRC теста 84B45A49
     CRC копии 84B45A49
     Трек не обнаружен в базе AccurateRip
     Копирование... OK

Ни одного трека нет в базе AccurateRip

Ошибок не произошло

Конец отчёта

---- CUETools DB Plugin V2.1.3

[CTDB TOCID: FSy.cpdRkmbEah8A2Yfql.of0Ss-] database access error: Невозможно разрешить удаленное имя: 'db.cuetools.net'

==== Контрольная сумма отчёта D9CCA72E4D5434C097DB28EF616CDC9BF8B35C4EC56D1835F3EC564FB986FA94 ====

Код:

Exact Audio Copy V1.0 beta 3 from 29. August 2011

Отчёт EAC об извлечении, выполненном 27. марта 2013, 10:38

VA  - Pure Trance & Hard House Anthems 2000 CD-02 / VA  - Pure Trance & Hard House Anthems 2000 CD-02

Дисковод: TSSTcorpBDDVDW SE-506AB   Adapter: 2  ID: 0

Режим чтения                 : Достоверность
Использование точного потока : Да
Отключение кэша аудио        : Да
Использование указателей C2  : Нет

Коррекция смещения при чтении                     : 6
Способность читать области Lead-in и Lead-out     : Нет
Заполнение пропущенных сэмплов тишиной            : Да
Удаление блоков с тишиной в начале и конце        : Нет
При вычислениях CRC использовались нулевые сэмплы : Да
Интерфейс                                         : Встроенный Win32-интерфейс для Win NT/2000
Обработка зазоров                                 : Добавлено к предыдущему треку

Выходной формат : Внутренние WAV-операции
Формат сэмплов  : 44.100 Гц; 16 бит; стерео

TOC извлечённого CD

     Трек |   Старт  | Длительность | Начальный сектор | Конечный сектор
    ---------------------------------------------------------------------
       1  |  0:00.00 |    7:19.13   |           0      |      32937     
       2  |  7:19.13 |    6:12.26   |       32938      |      60863     
       3  | 13:31.39 |    6:02.63   |       60864      |      88076     
       4  | 19:34.27 |    5:06.53   |       88077      |     111079     
       5  | 24:41.05 |    7:19.40   |      111080      |     144044     
       6  | 32:00.45 |    5:59.55   |      144045      |     171024     
       7  | 38:00.25 |    5:42.26   |      171025      |     196700     
       8  | 43:42.51 |    5:35.18   |      196701      |     221843     
       9  | 49:17.69 |    7:59.66   |      221844      |     257834     
      10  | 57:17.60 |    5:32.41   |      257835      |     282775     

Трек  1

     Имя файла Z:\[HD]\- [Base House] [VA & CDM]\[Сборники]\[Flac] Va - Pure Trance & Hard House Anthems\CD-02\01 [Fuego] - El Diablo (Madam Friction).wav

     Длина предзазора  0:00:02.00

     Пиковый уровень 100.0 %
     Скорость извлечения 2.3 X
     Качество трека 100.0 %
     CRC теста 47ED7AE7
     CRC копии 47ED7AE7
     Трек не обнаружен в базе AccurateRip
     Копирование... OK

Трек  2

     Имя файла Z:\[HD]\- [Base House] [VA & CDM]\[Сборники]\[Flac] Va - Pure Trance & Hard House Anthems\CD-02\02 [Red Zone] - Mile High.wav

     Длина предзазора  0:00:01.51

     Пиковый уровень 100.0 %
     Скорость извлечения 2.5 X
     Качество трека 100.0 %
     CRC теста 024BE28F
     CRC копии 024BE28F
     Трек не обнаружен в базе AccurateRip
     Копирование... OK

Трек  3

     Имя файла Z:\[HD]\- [Base House] [VA & CDM]\[Сборники]\[Flac] Va - Pure Trance & Hard House Anthems\CD-02\03 [John Paul] - Foresight.wav

     Длина предзазора  0:00:01.51

     Пиковый уровень 100.0 %
     Скорость извлечения 1.7 X
     Качество трека 99.9 %
     CRC теста 4F90B63E
     CRC копии 4F90B63E
     Трек не обнаружен в базе AccurateRip
     Копирование... OK

Трек  4

     Имя файла Z:\[HD]\- [Base House] [VA & CDM]\[Сборники]\[Flac] Va - Pure Trance & Hard House Anthems\CD-02\04 [Sonic 303] - Justice.wav

     Длина предзазора  0:00:01.50

     Пиковый уровень 100.0 %
     Скорость извлечения 3.7 X
     Качество трека 100.0 %
     CRC теста 3EC244EA
     CRC копии 3EC244EA
     Трек не обнаружен в базе AccurateRip
     Копирование... OK

Трек  5

     Имя файла Z:\[HD]\- [Base House] [VA & CDM]\[Сборники]\[Flac] Va - Pure Trance & Hard House Anthems\CD-02\05 [Knuckleheadz] - House Rocca.wav

     Длина предзазора  0:00:01.51

     Пиковый уровень 100.0 %
     Скорость извлечения 3.3 X
     Качество трека 99.9 %
     CRC теста 9C1432B7
     CRC копии 9C1432B7
     Трек не обнаружен в базе AccurateRip
     Копирование... OK

Трек  6

     Имя файла Z:\[HD]\- [Base House] [VA & CDM]\[Сборники]\[Flac] Va - Pure Trance & Hard House Anthems\CD-02\06 [DJ Van Der Holt] - Pysncopit (Holt remix).wav

     Длина предзазора  0:00:01.51

     Пиковый уровень 100.0 %
     Скорость извлечения 2.3 X
     Качество трека 100.0 %
     CRC теста E31CF7AE
     CRC копии E31CF7AE
     Трек не обнаружен в базе AccurateRip
     Копирование... OK

Трек  7

     Имя файла Z:\[HD]\- [Base House] [VA & CDM]\[Сборники]\[Flac] Va - Pure Trance & Hard House Anthems\CD-02\07 [Strongline] - Feel.wav

     Длина предзазора  0:00:01.51

     Пиковый уровень 100.0 %
     Скорость извлечения 2.4 X
     Качество трека 100.0 %
     CRC теста 62F6CE07
     CRC копии 62F6CE07
     Трек не обнаружен в базе AccurateRip
     Копирование... OK

Трек  8

     Имя файла Z:\[HD]\- [Base House] [VA & CDM]\[Сборники]\[Flac] Va - Pure Trance & Hard House Anthems\CD-02\08 [2 Tone] - Savage Beast.wav

     Длина предзазора  0:00:01.51

     Пиковый уровень 100.0 %
     Скорость извлечения 4.1 X
     Качество трека 100.0 %
     CRC теста 1DC4F934
     CRC копии 1DC4F934
     Трек не обнаружен в базе AccurateRip
     Копирование... OK

Трек  9

     Имя файла Z:\[HD]\- [Base House] [VA & CDM]\[Сборники]\[Flac] Va - Pure Trance & Hard House Anthems\CD-02\09 Alter Ego - Reach Up.wav

     Длина предзазора  0:00:01.52

     Пиковый уровень 100.0 %
     Скорость извлечения 5.3 X
     Качество трека 100.0 %
     CRC теста CA038587
     CRC копии CA038587
     Трек не обнаружен в базе AccurateRip
     Копирование... OK

Трек 10

     Имя файла Z:\[HD]\- [Base House] [VA & CDM]\[Сборники]\[Flac] Va - Pure Trance & Hard House Anthems\CD-02\10 [Hammer & Tongs] - Duality.wav

     Длина предзазора  0:00:01.51

     Пиковый уровень 100.0 %
     Скорость извлечения 4.1 X
     Качество трека 100.0 %
     CRC теста 5D2907D4
     CRC копии 5D2907D4
     Трек не обнаружен в базе AccurateRip
     Копирование... OK

Ни одного трека нет в базе AccurateRip

Ошибок не произошло

Конец отчёта

---- CUETools DB Plugin V2.1.3

[CTDB TOCID: 08QfeVcntEAYJxzVnDLKQbqYpos-] database access error: Невозможно разрешить удаленное имя: 'db.cuetools.net'

==== Контрольная сумма отчёта F06BFC0035D836CA80204A1B09C77403E6AFD78CADA8F339A9850B738F2AB3F3 ====

Код:

Exact Audio Copy V1.0 beta 3 from 29. August 2011

Отчёт EAC об извлечении, выполненном 27. марта 2013, 13:36

Various / Pure Trance And Hard House Anthems

Дисковод: TSSTcorpBDDVDW SE-506AB   Adapter: 2  ID: 0

Режим чтения                 : Достоверность
Использование точного потока : Да
Отключение кэша аудио        : Да
Использование указателей C2  : Нет

Коррекция смещения при чтении                     : 6
Способность читать области Lead-in и Lead-out     : Нет
Заполнение пропущенных сэмплов тишиной            : Да
Удаление блоков с тишиной в начале и конце        : Нет
При вычислениях CRC использовались нулевые сэмплы : Да
Интерфейс                                         : Встроенный Win32-интерфейс для Win NT/2000
Обработка зазоров                                 : Добавлено к предыдущему треку

Выходной формат : Внутренние WAV-операции
Формат сэмплов  : 44.100 Гц; 16 бит; стерео

TOC извлечённого CD

     Трек |   Старт  | Длительность | Начальный сектор | Конечный сектор
    ---------------------------------------------------------------------
       1  |  0:00.00 |    8:06.64   |           0      |      36513     
       2  |  8:06.64 |    6:13.73   |       36514      |      64561     
       3  | 14:20.62 |    5:27.43   |       64562      |      89129     
       4  | 19:48.30 |    5:40.42   |       89130      |     114671     
       5  | 25:28.72 |    7:39.36   |      114672      |     149132     
       6  | 33:08.33 |    5:46.14   |      149133      |     175096     
       7  | 38:54.47 |    5:20.25   |      175097      |     199121     
       8  | 44:14.72 |    5:37.31   |      199122      |     224427     
       9  | 49:52.28 |    6:57.18   |      224428      |     255720     
      10  | 56:49.46 |    6:37.72   |      255721      |     285567     

Трек  1

     Имя файла Z:\[HD]\- [Base House] [VA & CDM]\[Сборники]\[Flac] Va - Pure Trance & Hard House Anthems\CD-03\01 Friction.wav

     Длина предзазора  0:00:02.00

     Пиковый уровень 100.0 %
     Скорость извлечения 2.6 X
     Качество трека 100.0 %
     CRC теста 11E56FF5
     CRC копии 11E56FF5
     Точное извлечение (достоверность 1)  [C0EC83AB]  (AR v1)
     Копирование... OK

Трек  2

     Имя файла Z:\[HD]\- [Base House] [VA & CDM]\[Сборники]\[Flac] Va - Pure Trance & Hard House Anthems\CD-03\02 Illusions.wav

     Длина предзазора  0:00:02.01

     Пиковый уровень 100.0 %
     Скорость извлечения 2.7 X
     Качество трека 100.0 %
     CRC теста FEE9F124
     CRC копии FEE9F124
     Точное извлечение (достоверность 1)  [68AEC591]  (AR v1)
     Копирование... OK

Трек  3

     Имя файла Z:\[HD]\- [Base House] [VA & CDM]\[Сборники]\[Flac] Va - Pure Trance & Hard House Anthems\CD-03\03 Below Zero.wav

     Длина предзазора  0:00:02.01

     Пиковый уровень 100.0 %
     Скорость извлечения 3.6 X
     Качество трека 100.0 %
     CRC теста 5C03D4E8
     CRC копии 5C03D4E8
     Точное извлечение (достоверность 1)  [34F6ACF8]  (AR v1)
     Копирование... OK

Трек  4

     Имя файла Z:\[HD]\- [Base House] [VA & CDM]\[Сборники]\[Flac] Va - Pure Trance & Hard House Anthems\CD-03\04 Links To Your Mind (Night Mix).wav

     Длина предзазора  0:00:02.01

     Пиковый уровень 98.1 %
     Скорость извлечения 3.0 X
     Качество трека 100.0 %
     CRC теста 59D84A38
     CRC копии 59D84A38
     Точное извлечение (достоверность 1)  [A5D70F3D]  (AR v1)
     Копирование... OK

Трек  5

     Имя файла Z:\[HD]\- [Base House] [VA & CDM]\[Сборники]\[Flac] Va - Pure Trance & Hard House Anthems\CD-03\05 Raise Your Hands.wav

     Длина предзазора  0:00:02.01

     Пиковый уровень 100.0 %
     Скорость извлечения 3.1 X
     Качество трека 99.9 %
     CRC теста 651569ED
     CRC копии 651569ED
     Точное извлечение (достоверность 1)  [1607B976]  (AR v1)
     Копирование... OK

Трек  6

     Имя файла Z:\[HD]\- [Base House] [VA & CDM]\[Сборники]\[Flac] Va - Pure Trance & Hard House Anthems\CD-03\06 Faze 2 (Spirit Mix).wav

     Длина предзазора  0:00:02.01

     Пиковый уровень 100.0 %
     Скорость извлечения 3.5 X
     Качество трека 99.9 %
     CRC теста 2CAAF100
     CRC копии 2CAAF100
     Точность не определена (достоверность 1)  [36DF7CB6], AccurateRip вернул [355D232F]  (AR v2)
     Копирование... OK

Трек  7

     Имя файла Z:\[HD]\- [Base House] [VA & CDM]\[Сборники]\[Flac] Va - Pure Trance & Hard House Anthems\CD-03\07 Pursuit.wav

     Длина предзазора  0:00:02.01

     Пиковый уровень 100.0 %
     Скорость извлечения 4.2 X
     Качество трека 99.9 %
     CRC теста C8AFD413
     CRC копии C8AFD413
     Точность не определена (достоверность 1)  [4F70EB91], AccurateRip вернул [65334CC2]  (AR v2)
     Копирование... OK

Трек  8

     Имя файла Z:\[HD]\- [Base House] [VA & CDM]\[Сборники]\[Flac] Va - Pure Trance & Hard House Anthems\CD-03\08 Headstrong.wav

     Длина предзазора  0:00:02.01

     Пиковый уровень 100.0 %
     Скорость извлечения 4.9 X
     Качество трека 100.0 %
     CRC теста 832EBE36
     CRC копии 832EBE36
     Точность не определена (достоверность 1)  [D27EF77C], AccurateRip вернул [E56EF498]  (AR v2)
     Копирование... OK

Трек  9

     Имя файла Z:\[HD]\- [Base House] [VA & CDM]\[Сборники]\[Flac] Va - Pure Trance & Hard House Anthems\CD-03\09 Cardiac Motion.wav

     Длина предзазора  0:00:02.01

     Пиковый уровень 100.0 %
     Скорость извлечения 0.4 X
     Качество трека 99.9 %
     CRC теста 61D63C14
     CRC копии 61D63C14
     Точность не определена (достоверность 1)  [5AA01B88], AccurateRip вернул [320FBA8B]  (AR v2)
     Копирование... OK

Трек 10

     Имя файла Z:\[HD]\- [Base House] [VA & CDM]\[Сборники]\[Flac] Va - Pure Trance & Hard House Anthems\CD-03\10 Let Me Tell You Something.wav

     Длина предзазора  0:00:02.01

     Пиковый уровень 100.0 %
     Скорость извлечения 2.8 X
     Качество трека 100.0 %
     CRC теста 942BFC92
     CRC копии 942BFC92
     Точность не определена (достоверность 1)  [E0ECC2F1], AccurateRip вернул [0A56CDE2]  (AR v2)
     Копирование... OK

 5 трек(и) скопированы точно
 5 трек(и) не удалось проверить на точность

Некоторые треки не прошли проверку на точность

Ошибок не произошло

Конец отчёта

---- CUETools DB Plugin V2.1.3

[CTDB TOCID: GIANIcFXYPzaEdc8s_tGRLWzVPU-] disk not present in database, Submit result: GIANIcFXYPzaEdc8s_tGRLWzVPU- has been uploaded

==== Контрольная сумма отчёта 60CF4958E0DE6AFBD00A02E1338DA27B8720706B849E6A699AC404A52C802343 ====

Код:

Exact Audio Copy V1.0 beta 3 from 29. August 2011

Отчёт EAC об извлечении, выполненном 27. марта 2013, 15:02

Various / Pure Trance And Hard House Anthems

Дисковод: TSSTcorpBDDVDW SE-506AB   Adapter: 2  ID: 0

Режим чтения                 : Достоверность
Использование точного потока : Да
Отключение кэша аудио        : Да
Использование указателей C2  : Нет

Коррекция смещения при чтении                     : 6
Способность читать области Lead-in и Lead-out     : Нет
Заполнение пропущенных сэмплов тишиной            : Да
Удаление блоков с тишиной в начале и конце        : Нет
При вычислениях CRC использовались нулевые сэмплы : Да
Интерфейс                                         : Встроенный Win32-интерфейс для Win NT/2000
Обработка зазоров                                 : Добавлено к предыдущему треку

Выходной формат : Внутренние WAV-операции
Формат сэмплов  : 44.100 Гц; 16 бит; стерео

TOC извлечённого CD

     Трек |   Старт  | Длительность | Начальный сектор | Конечный сектор
    ---------------------------------------------------------------------
       1  |  0:00.00 |    7:26.40   |           0      |      33489     
       2  |  7:26.40 |    5:26.61   |       33490      |      58000     
       3  | 12:53.26 |    5:08.29   |       58001      |      81129     
       4  | 18:01.55 |    6:54.15   |       81130      |     112194     
       5  | 24:55.70 |    6:56.07   |      112195      |     143401     
       6  | 31:52.02 |    5:47.40   |      143402      |     169466     
       7  | 37:39.42 |    4:50.04   |      169467      |     191220     
       8  | 42:29.46 |    4:54.45   |      191221      |     213315     
       9  | 47:24.16 |    6:10.04   |      213316      |     241069     
      10  | 53:34.20 |    8:25.71   |      241070      |     279015     

Трек  1

     Имя файла Z:\[HD]\- [Base House] [VA & CDM]\[Сборники]\[Flac] Va - Pure Trance & Hard House Anthems\CD-04\01 RoK Da Discotek.wav

     Длина предзазора  0:00:02.00

     Пиковый уровень 100.0 %
     Скорость извлечения 2.0 X
     Качество трека 99.9 %
     CRC теста 981A1A12
     CRC копии 981A1A12
     Точное извлечение (достоверность 1)  [305979DA]  (AR v1)
     Копирование... OK

Трек  2

     Имя файла Z:\[HD]\- [Base House] [VA & CDM]\[Сборники]\[Flac] Va - Pure Trance & Hard House Anthems\CD-04\02 Airbourne.wav

     Длина предзазора  0:00:01.51

     Пиковый уровень 100.0 %
     Скорость извлечения 3.2 X
     Качество трека 100.0 %
     CRC теста 68003A65
     CRC копии 68003A65
     Точное извлечение (достоверность 1)  [41317472]  (AR v1)
     Копирование... OK

Трек  3

     Имя файла Z:\[HD]\- [Base House] [VA & CDM]\[Сборники]\[Flac] Va - Pure Trance & Hard House Anthems\CD-04\03 Running.wav

     Длина предзазора  0:00:01.51

     Пиковый уровень 100.0 %
     Скорость извлечения 2.2 X
     Качество трека 99.9 %
     CRC теста 7BAC6BD2
     CRC копии 7BAC6BD2
     Точное извлечение (достоверность 1)  [67C4BC25]  (AR v1)
     Копирование... OK

Трек  4

     Имя файла Z:\[HD]\- [Base House] [VA & CDM]\[Сборники]\[Flac] Va - Pure Trance & Hard House Anthems\CD-04\04 Musika.wav

     Длина предзазора  0:00:01.51

     Пиковый уровень 98.6 %
     Скорость извлечения 3.9 X
     Качество трека 100.0 %
     CRC теста DE99104B
     CRC копии DE99104B
     Точное извлечение (достоверность 1)  [4FB1E9BE]  (AR v1)
     Копирование... OK

Трек  5

     Имя файла Z:\[HD]\- [Base House] [VA & CDM]\[Сборники]\[Flac] Va - Pure Trance & Hard House Anthems\CD-04\05 Rock Your Body.wav

     Длина предзазора  0:00:01.51

     Пиковый уровень 100.0 %
     Скорость извлечения 4.2 X
     Качество трека 100.0 %
     CRC теста D714CD14
     CRC копии D714CD14
     Точное извлечение (достоверность 1)  [66EED106]  (AR v1)
     Копирование... OK

Трек  6

     Имя файла Z:\[HD]\- [Base House] [VA & CDM]\[Сборники]\[Flac] Va - Pure Trance & Hard House Anthems\CD-04\06 Section 17.wav

     Длина предзазора  0:00:01.51

     Пиковый уровень 100.0 %
     Скорость извлечения 2.3 X
     Качество трека 100.0 %
     CRC теста 733DCD13
     CRC копии 733DCD13
     Точное извлечение (достоверность 1)  [98265F72]  (AR v1)
     Копирование... OK

Трек  7

     Имя файла Z:\[HD]\- [Base House] [VA & CDM]\[Сборники]\[Flac] Va - Pure Trance & Hard House Anthems\CD-04\07 High On Life.wav

     Длина предзазора  0:00:01.51

     Пиковый уровень 100.0 %
     Скорость извлечения 4.4 X
     Качество трека 100.0 %
     CRC теста 46536D1F
     CRC копии 46536D1F
     Точное извлечение (достоверность 1)  [7CBD9511]  (AR v1)
     Копирование... OK

Трек  8

     Имя файла Z:\[HD]\- [Base House] [VA & CDM]\[Сборники]\[Flac] Va - Pure Trance & Hard House Anthems\CD-04\08 Hold On (Higher Mix).wav

     Длина предзазора  0:00:01.51

     Пиковый уровень 100.0 %
     Скорость извлечения 3.6 X
     Качество трека 100.0 %
     CRC теста 00866244
     CRC копии 00866244
     Точное извлечение (достоверность 1)  [3AD34CC2]  (AR v1)
     Копирование... OK

Трек  9

     Имя файла Z:\[HD]\- [Base House] [VA & CDM]\[Сборники]\[Flac] Va - Pure Trance & Hard House Anthems\CD-04\09 Tomorrow.wav

     Длина предзазора  0:00:01.50

     Пиковый уровень 100.0 %
     Скорость извлечения 4.9 X
     Качество трека 100.0 %
     CRC теста F3DD8571
     CRC копии F3DD8571
     Точное извлечение (достоверность 1)  [9BA5989C]  (AR v1)
     Копирование... OK

Трек 10

     Имя файла Z:\[HD]\- [Base House] [VA & CDM]\[Сборники]\[Flac] Va - Pure Trance & Hard House Anthems\CD-04\10 Dreamer (Pants & Corset Rmx).wav

     Длина предзазора  0:00:01.51

     Пиковый уровень 99.8 %
     Скорость извлечения 3.9 X
     Качество трека 99.9 %
     CRC теста 30F2157B
     CRC копии 30F2157B
     Точное извлечение (достоверность 1)  [BDDB3093]  (AR v1)
     Копирование... OK

Все треки извлечены точно

Ошибок не произошло

Конец отчёта

---- CUETools DB Plugin V2.1.3

[CTDB TOCID: .Vf4zFOh6ULCBTgUHY_BPjRT7rY-] disk not present in database, Submit result: .Vf4zFOh6ULCBTgUHY_BPjRT7rY- has been uploaded

==== Контрольная сумма отчёта 1B9F5869A14DAA0AFB811201BC159841FE9D81AB3A92CF1E815BC70871555E3F ====

Код:

Exact Audio Copy V1.0 beta 3 from 29. August 2011

Отчёт EAC об извлечении, выполненном 27. марта 2013, 16:44

Various / Pure Trance And Hard House Anthems

Дисковод: TSSTcorpBDDVDW SE-506AB   Adapter: 2  ID: 0

Режим чтения                 : Достоверность
Использование точного потока : Да
Отключение кэша аудио        : Да
Использование указателей C2  : Нет

Коррекция смещения при чтении                     : 6
Способность читать области Lead-in и Lead-out     : Нет
Заполнение пропущенных сэмплов тишиной            : Да
Удаление блоков с тишиной в начале и конце        : Нет
При вычислениях CRC использовались нулевые сэмплы : Да
Интерфейс                                         : Встроенный Win32-интерфейс для Win NT/2000
Обработка зазоров                                 : Добавлено к предыдущему треку

Выходной формат : Внутренние WAV-операции
Формат сэмплов  : 44.100 Гц; 16 бит; стерео

TOC извлечённого CD

     Трек |   Старт  | Длительность | Начальный сектор | Конечный сектор
    ---------------------------------------------------------------------
       1  |  0:00.00 |    9:21.33   |           0      |      42107     
       2  |  9:21.33 |    6:00.22   |       42108      |      69129     
       3  | 15:21.55 |    5:21.56   |       69130      |      93260     
       4  | 20:43.36 |    5:07.03   |       93261      |     116288     
       5  | 25:50.39 |    8:19.66   |      116289      |     153779     
       6  | 34:10.30 |    5:21.73   |      153780      |     177927     
       7  | 39:32.28 |    4:59.67   |      177928      |     200419     
       8  | 44:32.20 |    5:06.33   |      200420      |     223402     
       9  | 49:38.53 |    6:57.35   |      223403      |     254712     
      10  | 56:36.13 |    5:58.28   |      254713      |     281590     

Трек  1

     Имя файла Z:\[HD]\- [Base House] [VA & CDM]\[Сборники]\[Flac] Va - Pure Trance & Hard House Anthems\CD-05\01 Dammit Janet.wav

     Длина предзазора  0:00:02.00

     Пиковый уровень 100.0 %
     Скорость извлечения 2.4 X
     Качество трека 100.0 %
     CRC теста BCD19B26
     CRC копии BCD19B26
     Трек не обнаружен в базе AccurateRip
     Копирование... OK

Трек  2

     Имя файла Z:\[HD]\- [Base House] [VA & CDM]\[Сборники]\[Flac] Va - Pure Trance & Hard House Anthems\CD-05\02 Lost Planet.wav

     Длина предзазора  0:00:01.51

     Пиковый уровень 100.0 %
     Скорость извлечения 3.4 X
     Качество трека 100.0 %
     CRC теста 2C5F944F
     CRC копии 2C5F944F
     Трек не обнаружен в базе AccurateRip
     Копирование... OK

Трек  3

     Имя файла Z:\[HD]\- [Base House] [VA & CDM]\[Сборники]\[Flac] Va - Pure Trance & Hard House Anthems\CD-05\03 Nastriok.wav

     Длина предзазора  0:00:01.51

     Пиковый уровень 100.0 %
     Скорость извлечения 2.8 X
     Качество трека 100.0 %
     CRC теста E910BE57
     CRC копии E910BE57
     Трек не обнаружен в базе AccurateRip
     Копирование... OK

Трек  4

     Имя файла Z:\[HD]\- [Base House] [VA & CDM]\[Сборники]\[Flac] Va - Pure Trance & Hard House Anthems\CD-05\04 Soundscpes.wav

     Длина предзазора  0:00:01.51

     Пиковый уровень 100.0 %
     Скорость извлечения 2.0 X
     Качество трека 100.0 %
     CRC теста E775CC45
     CRC копии E775CC45
     Трек не обнаружен в базе AccurateRip
     Копирование... OK

Трек  5

     Имя файла Z:\[HD]\- [Base House] [VA & CDM]\[Сборники]\[Flac] Va - Pure Trance & Hard House Anthems\CD-05\05 D Funked.wav

     Длина предзазора  0:00:01.51

     Пиковый уровень 100.0 %
     Скорость извлечения 2.2 X
     Качество трека 100.0 %
     CRC теста 342A4D33
     CRC копии 342A4D33
     Трек не обнаружен в базе AccurateRip
     Копирование... OK

Трек  6

     Имя файла Z:\[HD]\- [Base House] [VA & CDM]\[Сборники]\[Flac] Va - Pure Trance & Hard House Anthems\CD-05\06 Hear Me Now (Big Time Rmx).wav

     Длина предзазора  0:00:01.52

     Пиковый уровень 100.0 %
     Скорость извлечения 4.2 X
     Качество трека 100.0 %
     CRC теста 1977B6D9
     CRC копии 1977B6D9
     Трек не обнаружен в базе AccurateRip
     Копирование... OK

Трек  7

     Имя файла Z:\[HD]\- [Base House] [VA & CDM]\[Сборники]\[Flac] Va - Pure Trance & Hard House Anthems\CD-05\07 Doin' Time (Stompin Mix).wav

     Длина предзазора  0:00:01.51

     Пиковый уровень 100.0 %
     Скорость извлечения 4.7 X
     Качество трека 100.0 %
     CRC теста 3B1CA85D
     CRC копии 3B1CA85D
     Трек не обнаружен в базе AccurateRip
     Копирование... OK

Трек  8

     Имя файла Z:\[HD]\- [Base House] [VA & CDM]\[Сборники]\[Flac] Va - Pure Trance & Hard House Anthems\CD-05\08 Timezone.wav

     Длина предзазора  0:00:01.51

     Пиковый уровень 100.0 %
     Скорость извлечения 0.3 X
     Качество трека 99.9 %
     CRC теста 175DC590
     CRC копии 175DC590
     Трек не обнаружен в базе AccurateRip
     Копирование... OK

Трек  9

     Имя файла Z:\[HD]\- [Base House] [VA & CDM]\[Сборники]\[Flac] Va - Pure Trance & Hard House Anthems\CD-05\09 Imagination 2000 (Remix).wav

     Длина предзазора  0:00:01.51

     Пиковый уровень 100.0 %
     Скорость извлечения 4.5 X
     Качество трека 100.0 %
     CRC теста 5A28AD14
     CRC копии 5A28AD14
     Трек не обнаружен в базе AccurateRip
     Копирование... OK

Трек 10

     Имя файла Z:\[HD]\- [Base House] [VA & CDM]\[Сборники]\[Flac] Va - Pure Trance & Hard House Anthems\CD-05\10 Nu Tronic.wav

     Длина предзазора  0:00:01.51

     Пиковый уровень 100.0 %
     Скорость извлечения 3.5 X
     Качество трека 99.9 %
     CRC теста 5CAAC526
     CRC копии 5CAAC526
     Трек не обнаружен в базе AccurateRip
     Копирование... OK

Ни одного трека нет в базе AccurateRip

Ошибок не произошло

Конец отчёта

---- CUETools DB Plugin V2.1.3

[CTDB TOCID: hf3_OX8XkbU.kv9U6nn7oiMxC8I-] disk not present in database, Submit result: hf3_OX8XkbU.kv9U6nn7oiMxC8I- has been uploaded

==== Контрольная сумма отчёта B7C7DE8014429BCCBE0066C51D1695D5B3EFFAA34C8322E6D7B3DDF5A01FEE3C ====

Страница 1 из 1

new_topic  reply_topic

Текущее время: 06-Май 19:51
Часовой пояс: GMT + 4

m Сделано с любовью PR-CY.ru Каталог webplus.info