Вход на сайт

Имя:
Пароль:

· Забыли пароль?
logo
Портал Форум
Регистрация Вход


new_topic  reply_topic

  (House) Various ‎– House Line 7 1998, WAV (tracks + .cue), lossless

pic
Год выпуска: 1998
Страна: Germany
Жанр: House
Номер #: Dance Paradise - INT - 260.332
Тип издания: сборник
Аудио кодек: WAV
Тип рипа: (tracks + .cue)
Битрейт аудио: lossless

Треклист:

CD1:
01. 666 - Diablo (Extended 666-Mix)
02. Mazza & Go. - Bitter Sweet Symphony (Club Mix)
03. Central Seven - Error (Extended Edit)
04. N.Y.C.C. - Fight For Your Right (Extended Version)
05. Triple S. - Whoomp!(There It Is) (DJ Disco Mix)
06. DJ Supreme - Tha Horns Of Jericho (Extended Mix)
07. Blank & Jones - Heartbeat (Club Mix)
08. Housemax - Push It (Max Deejay vs. Lac Terra Remix)
09. DJ Scot Projekt - X2(Time Is Now) (Club Mix)
10. DJ Dimitri - Voice (Vector Mode RMX)
11. Paraphonatic - As Time Goes By


CD2:
01. Koala - Indian Spirits (Club Base)
02. DJ Panda - Listen (Club Speed Version)
03. DJ Silencer vs. Zycro - Birthday Party (Extended Version)
04. N4N - Dreaming Wild (Club Base)
05. N.Y.P.D. - Funky Crime (Extended)
06. DJ's Attack - Floor Fever (Space Trip)
07. Bad Posse - Here We Go Again (Extended Version)
08. Bounce # 9 - Der Mussolini (Extended Mix)
09. Buzz - Love Junkies (Head Over Heals In Love Mix)
10. Nation 4 Nation - Gate No. 17 (Extended Version)
11. The Laconic - Energy (Club Energy)
12. Accrochage - Illuminate (Maxi Edit)


Доп. информация:
2 × CD, Compilation (UnMixed) FullTracks
_______________________________________________
http://www.discogs.com/Various-House-Line-7/release/1509663

Код:

Exact Audio Copy V1.0 beta 3 from 29. August 2011

Отчёт EAC об извлечении, выполненном 17. июня 2013, 19:55

Various Artist / 1998 House Line 07 CD-01

Дисковод: TSSTcorpBDDVDW SE-506AB   Adapter: 2  ID: 0

Режим чтения                 : Достоверность
Использование точного потока : Да
Отключение кэша аудио        : Да
Использование указателей C2  : Нет

Коррекция смещения при чтении                     : 6
Способность читать области Lead-in и Lead-out     : Нет
Заполнение пропущенных сэмплов тишиной            : Да
Удаление блоков с тишиной в начале и конце        : Нет
При вычислениях CRC использовались нулевые сэмплы : Да
Интерфейс                                         : Встроенный Win32-интерфейс для Win NT/2000
Обработка зазоров                                 : Добавлено к предыдущему треку

Выходной формат : Внутренние WAV-операции
Формат сэмплов  : 44.100 Гц; 16 бит; стерео

TOC извлечённого CD

     Трек |   Старт  | Длительность | Начальный сектор | Конечный сектор
    ---------------------------------------------------------------------
       1  |  0:00.00 |    5:12.24   |           0      |      23423     
       2  |  5:12.24 |    7:52.30   |       23424      |      58853     
       3  | 13:04.54 |    5:02.59   |       58854      |      81562     
       4  | 18:07.38 |    5:56.28   |       81563      |     108290     
       5  | 24:03.66 |    6:50.33   |      108291      |     139073     
       6  | 30:54.24 |    5:36.15   |      139074      |     164288     
       7  | 36:30.39 |    8:07.46   |      164289      |     200859     
       8  | 44:38.10 |    6:22.53   |      200860      |     229562     
       9  | 51:00.63 |    7:51.50   |      229563      |     264937     
      10  | 58:52.38 |    7:33.26   |      264938      |     298938     
      11  | 66:25.64 |    5:39.00   |      298939      |     324363     

Трек  1

     Имя файла C:\2\[Flac] (various) House Line 7\CD - 01\01 Трек01.wav

     Длина предзазора  0:00:02.00

     Пиковый уровень 100.0 %
     Скорость извлечения 1.3 X
     Качество трека 100.0 %
     CRC теста A1F79D65
     CRC копии A1F79D65
     Трек не обнаружен в базе AccurateRip
     Копирование... OK

Трек  2

     Имя файла C:\2\[Flac] (various) House Line 7\CD - 01\02 Трек02.wav

     Длина предзазора  0:00:02.00

     Пиковый уровень 100.0 %
     Скорость извлечения 1.4 X
     Качество трека 99.9 %
     CRC теста 114E5E97
     CRC копии 114E5E97
     Трек не обнаружен в базе AccurateRip
     Копирование... OK

Трек  3

     Имя файла C:\2\[Flac] (various) House Line 7\CD - 01\03 Трек03.wav

     Длина предзазора  0:00:02.00

     Пиковый уровень 100.0 %
     Скорость извлечения 1.5 X
     Качество трека 99.9 %
     CRC теста 1DB7717E
     CRC копии 1DB7717E
     Трек не обнаружен в базе AccurateRip
     Копирование... OK

Трек  4

     Имя файла C:\2\[Flac] (various) House Line 7\CD - 01\04 Трек04.wav

     Длина предзазора  0:00:02.00

     Пиковый уровень 99.9 %
     Скорость извлечения 1.8 X
     Качество трека 100.0 %
     CRC теста 143C37C3
     CRC копии 143C37C3
     Трек не обнаружен в базе AccurateRip
     Копирование... OK

Трек  5

     Имя файла C:\2\[Flac] (various) House Line 7\CD - 01\05 Трек05.wav

     Длина предзазора  0:00:02.00

     Пиковый уровень 100.0 %
     Скорость извлечения 0.3 X
     Качество трека 100.0 %
     CRC теста 21A5E721
     CRC копии 21A5E721
     Трек не обнаружен в базе AccurateRip
     Копирование... OK

Трек  6

     Имя файла C:\2\[Flac] (various) House Line 7\CD - 01\06 Трек06.wav

     Длина предзазора  0:00:02.00

     Пиковый уровень 99.9 %
     Скорость извлечения 2.1 X
     Качество трека 100.0 %
     CRC теста 6DE88127
     CRC копии 6DE88127
     Трек не обнаружен в базе AccurateRip
     Копирование... OK

Трек  7

     Имя файла C:\2\[Flac] (various) House Line 7\CD - 01\07 Трек07.wav

     Длина предзазора  0:00:02.00

     Пиковый уровень 100.0 %
     Скорость извлечения 2.3 X
     Качество трека 100.0 %
     CRC теста 9880216F
     CRC копии 9880216F
     Трек не обнаружен в базе AccurateRip
     Копирование... OK

Трек  8

     Имя файла C:\2\[Flac] (various) House Line 7\CD - 01\08 Трек08.wav

     Длина предзазора  0:00:02.00

     Пиковый уровень 100.0 %
     Скорость извлечения 2.4 X
     Качество трека 100.0 %
     CRC теста A1B02AB1
     CRC копии A1B02AB1
     Трек не обнаружен в базе AccurateRip
     Копирование... OK

Трек  9

     Имя файла C:\2\[Flac] (various) House Line 7\CD - 01\09 Трек09.wav

     Длина предзазора  0:00:02.00

     Пиковый уровень 99.9 %
     Скорость извлечения 2.6 X
     Качество трека 100.0 %
     CRC теста 1A6CC001
     CRC копии 1A6CC001
     Трек не обнаружен в базе AccurateRip
     Копирование... OK

Трек 10

     Имя файла C:\2\[Flac] (various) House Line 7\CD - 01\10 Трек10.wav

     Длина предзазора  0:00:02.00

     Пиковый уровень 100.0 %
     Скорость извлечения 2.7 X
     Качество трека 100.0 %
     CRC теста BCFD6640
     CRC копии BCFD6640
     Трек не обнаружен в базе AccurateRip
     Копирование... OK

Трек 11

     Имя файла C:\2\[Flac] (various) House Line 7\CD - 01\11 Трек11.wav

     Длина предзазора  0:00:02.00

     Пиковый уровень 96.5 %
     Скорость извлечения 2.5 X
     Качество трека 99.9 %
     CRC теста B5D8CEF7
     CRC копии B5D8CEF7
     Трек не обнаружен в базе AccurateRip
     Копирование... OK

Ни одного трека нет в базе AccurateRip

Ошибок не произошло

Конец отчёта

---- CUETools DB Plugin V2.1.3

[CTDB TOCID: 8tmgLRBiLS57LSKv.H75TSSFVsw-] database access error: Невозможно разрешить удаленное имя: 'db.cuetools.net'

==== Контрольная сумма отчёта 606DCC896424CB22D0150C2CDD7ACA107F642823B055AC851AB2481CB100CDDA ====

Код:

Exact Audio Copy V1.0 beta 3 from 29. August 2011

Отчёт EAC об извлечении, выполненном 17. июня 2013, 21:39

Various Artist / 1998 House Line 07 CD-02

Дисковод: TSSTcorpBDDVDW SE-506AB   Adapter: 2  ID: 0

Режим чтения                 : Достоверность
Использование точного потока : Да
Отключение кэша аудио        : Да
Использование указателей C2  : Нет

Коррекция смещения при чтении                     : 6
Способность читать области Lead-in и Lead-out     : Нет
Заполнение пропущенных сэмплов тишиной            : Да
Удаление блоков с тишиной в начале и конце        : Нет
При вычислениях CRC использовались нулевые сэмплы : Да
Интерфейс                                         : Встроенный Win32-интерфейс для Win NT/2000
Обработка зазоров                                 : Добавлено к предыдущему треку

Выходной формат : Внутренние WAV-операции
Формат сэмплов  : 44.100 Гц; 16 бит; стерео

TOC извлечённого CD

     Трек |   Старт  | Длительность | Начальный сектор | Конечный сектор
    ---------------------------------------------------------------------
       1  |  0:00.00 |    5:29.20   |           0      |      24694     
       2  |  5:29.20 |    6:55.38   |       24695      |      55857     
       3  | 12:24.58 |    6:39.19   |       55858      |      85801     
       4  | 19:04.02 |    4:57.27   |       85802      |     108103     
       5  | 24:01.29 |    5:57.05   |      108104      |     134883     
       6  | 29:58.34 |    5:46.30   |      134884      |     160863     
       7  | 35:44.64 |    5:32.54   |      160864      |     185817     
       8  | 41:17.43 |    4:44.17   |      185818      |     207134     
       9  | 46:01.60 |    5:26.67   |      207135      |     231651     
      10  | 51:28.52 |    7:51.53   |      231652      |     267029     
      11  | 59:20.30 |    5:26.03   |      267030      |     291482     
      12  | 64:46.33 |    5:50.44   |      291483      |     317776     

Трек  1

     Имя файла C:\2\[Flac] (various) House Line 7\CD - 02\01 Трек01.wav

     Длина предзазора  0:00:02.00

     Пиковый уровень 100.0 %
     Скорость извлечения 2.1 X
     Качество трека 100.0 %
     CRC теста 9FD38010
     CRC копии 9FD38010
     Трек не обнаружен в базе AccurateRip
     Копирование... OK

Трек  2

     Имя файла C:\2\[Flac] (various) House Line 7\CD - 02\02 Трек02.wav

     Длина предзазора  0:00:02.00

     Пиковый уровень 99.9 %
     Скорость извлечения 2.4 X
     Качество трека 100.0 %
     CRC теста AB12F50C
     CRC копии AB12F50C
     Трек не обнаружен в базе AccurateRip
     Копирование... OK

Трек  3

     Имя файла C:\2\[Flac] (various) House Line 7\CD - 02\03 Трек03.wav

     Длина предзазора  0:00:02.00

     Пиковый уровень 99.9 %
     Скорость извлечения 2.5 X
     Качество трека 100.0 %
     CRC теста 780CEC30
     CRC копии 780CEC30
     Трек не обнаружен в базе AccurateRip
     Копирование... OK

Трек  4

     Имя файла C:\2\[Flac] (various) House Line 7\CD - 02\04 Трек04.wav

     Длина предзазора  0:00:02.00

     Пиковый уровень 99.9 %
     Скорость извлечения 2.4 X
     Качество трека 100.0 %
     CRC теста 345865BE
     CRC копии 345865BE
     Трек не обнаружен в базе AccurateRip
     Копирование... OK

Трек  5

     Имя файла C:\2\[Flac] (various) House Line 7\CD - 02\05 Трек05.wav

     Длина предзазора  0:00:02.00

     Пиковый уровень 99.9 %
     Скорость извлечения 1.9 X
     Качество трека 100.0 %
     CRC теста C2FEA979
     CRC копии C2FEA979
     Трек не обнаружен в базе AccurateRip
     Копирование... OK

Трек  6

     Имя файла C:\2\[Flac] (various) House Line 7\CD - 02\06 Трек06.wav

     Длина предзазора  0:00:02.00

     Пиковый уровень 99.9 %
     Скорость извлечения 3.6 X
     Качество трека 100.0 %
     CRC теста 5FDCD8C2
     CRC копии 5FDCD8C2
     Трек не обнаружен в базе AccurateRip
     Копирование... OK

Трек  7

     Имя файла C:\2\[Flac] (various) House Line 7\CD - 02\07 Трек07.wav

     Длина предзазора  0:00:02.00

     Пиковый уровень 99.9 %
     Скорость извлечения 3.3 X
     Качество трека 99.9 %
     CRC теста 88065505
     CRC копии 88065505
     Трек не обнаружен в базе AccurateRip
     Копирование... OK

Трек  8

     Имя файла C:\2\[Flac] (various) House Line 7\CD - 02\08 Трек08.wav

     Длина предзазора  0:00:02.00

     Пиковый уровень 100.0 %
     Скорость извлечения 2.2 X
     Качество трека 100.0 %
     CRC теста CEF8569B
     CRC копии CEF8569B
     Трек не обнаружен в базе AccurateRip
     Копирование... OK

Трек  9

     Имя файла C:\2\[Flac] (various) House Line 7\CD - 02\09 Трек09.wav

     Длина предзазора  0:00:02.00

     Пиковый уровень 100.0 %
     Скорость извлечения 2.2 X
     Качество трека 99.9 %
     CRC теста C5F2E74D
     CRC копии C5F2E74D
     Трек не обнаружен в базе AccurateRip
     Копирование... OK

Трек 10

     Имя файла C:\2\[Flac] (various) House Line 7\CD - 02\10 Трек10.wav

     Длина предзазора  0:00:02.00

     Пиковый уровень 99.4 %
     Скорость извлечения 3.8 X
     Качество трека 100.0 %
     CRC теста B0D121D5
     CRC копии B0D121D5
     Трек не обнаружен в базе AccurateRip
     Копирование... OK

Трек 11

     Имя файла C:\2\[Flac] (various) House Line 7\CD - 02\11 Трек11.wav

     Длина предзазора  0:00:02.00

     Пиковый уровень 100.0 %
     Скорость извлечения 5.0 X
     Качество трека 100.0 %
     CRC теста 5E57984E
     CRC копии 5E57984E
     Трек не обнаружен в базе AccurateRip
     Копирование... OK

Трек 12

     Имя файла C:\2\[Flac] (various) House Line 7\CD - 02\12 Трек12.wav

     Длина предзазора  0:00:02.00

     Пиковый уровень 99.9 %
     Скорость извлечения 3.0 X
     Качество трека 99.9 %
     CRC теста 712DDCAD
     CRC копии 712DDCAD
     Трек не обнаружен в базе AccurateRip
     Копирование... OK

Ни одного трека нет в базе AccurateRip

Ошибок не произошло

Конец отчёта

---- CUETools DB Plugin V2.1.3

[CTDB TOCID: uTTubVdY3hNzaOhfIXzDr5NjAiE-] database access error: Невозможно разрешить удаленное имя: 'db.cuetools.net'

==== Контрольная сумма отчёта C14CDFCFB7F7E68CFFD1E6A38D6CFDBA06EA03BA000D26AF5F68ACED419EDD6C ====

Страница 1 из 1

new_topic  reply_topic

Текущее время: 06-Май 19:23
Часовой пояс: GMT + 4

m Сделано с любовью PR-CY.ru Каталог webplus.info