Вход на сайт

Имя:
Пароль:

· Забыли пароль?
logo
Портал Форум
Регистрация Вход


new_topic  reply_topic

  (House) Various ‎– House Line 6 1997, WAV (tracks + .cue), lossless

pic
Год выпуска: 1997
Страна: Germany
Жанр: House
Номер #: Dance Paradise - INT 260.329
Тип издания: сборник
Аудио кодек: WAV
Тип рипа: (tracks + .cue)
Битрейт аудио: lossless

Треклист:

CD1:
01. K. Capone - Pain (Club Mix Instrumental)
02. 666 - Alarma! (X-Tended Alert Mix)
03. DJ The Crow - A Girl Like You (Album Mix)
04. Quench - Dreams (Maverick's Remix)
05. BBE - Desire (Vocal Club Mix)
06. Central Seven - The God Of House (Extended Mix)
07. Jay Dee - Plastic Dreams (Shahin & Simon Re-Construction)
08. Toss & Turn - Bang Bang (Do Da Boogie) (Club Mix)
09. De Bos - On The Run (Vincent De Moor Remix)
10. Plastix - Zulu Tribe (De Donatis Mix)
11. Manolo - Straight To Ya (Monster Mix)
12. DJ Teeno Presents The Riu Palace Project - The Sound Of Mallorca (Riu Palace Club Mix)


CD2:
01. Koala - Australia (Club Version)
02. Nation 4 Nation - Heartbreak (Club Version)
03. Groovemate - Inside My Mind (Extended Mix)
04. Bomb Jaxx - Don't Leave Me (Extended Mix)
05. N.Y.P.D. - Observer (Club-Observation)
06. DJ Starmax - Take Me To The Top (Maxi-Star Edit)
07. Metro 07 - Don't Stop Me (Dan Maxam Mix)
08. The Pulze - I Can't Resist (Extended Mix)
09. Parasonic - Power Of Love (Maxi Mix)
10. Trance M. - The Trance Comes All Over You (Maxi Edit)
11. Option - 4ever (Wedding Dance)
12. DJ Cooper - Cold (Club Version)


Доп. информация:
2 × CD, Compilation
_______________________________________________
http://www.discogs.com/Various-House-Line-6/release/1086738

Код:

Exact Audio Copy V1.0 beta 3 from 29. August 2011

Отчёт EAC об извлечении, выполненном 18. июня 2013, 17:01

Various Artist / 1997 House Line 06 CD-01

Дисковод: TSSTcorpBDDVDW SE-506AB   Adapter: 2  ID: 0

Режим чтения                 : Достоверность
Использование точного потока : Да
Отключение кэша аудио        : Да
Использование указателей C2  : Нет

Коррекция смещения при чтении                     : 6
Способность читать области Lead-in и Lead-out     : Нет
Заполнение пропущенных сэмплов тишиной            : Да
Удаление блоков с тишиной в начале и конце        : Нет
При вычислениях CRC использовались нулевые сэмплы : Да
Интерфейс                                         : Встроенный Win32-интерфейс для Win NT/2000
Обработка зазоров                                 : Добавлено к предыдущему треку

Выходной формат : Внутренние WAV-операции
Формат сэмплов  : 44.100 Гц; 16 бит; стерео

TOC извлечённого CD

     Трек |   Старт  | Длительность | Начальный сектор | Конечный сектор
    ---------------------------------------------------------------------
       1  |  0:00.00 |    6:40.50   |           0      |      30049     
       2  |  6:40.50 |    5:04.49   |       30050      |      52898     
       3  | 11:45.24 |    4:41.28   |       52899      |      74001     
       4  | 16:26.52 |    7:49.50   |       74002      |     109226     
       5  | 24:16.27 |    5:00.71   |      109227      |     131797     
       6  | 29:17.23 |    5:44.72   |      131798      |     157669     
       7  | 35:02.20 |    6:29.44   |      157670      |     186888     
       8  | 41:31.64 |    6:16.74   |      186889      |     215162     
       9  | 47:48.63 |    6:23.67   |      215163      |     243954     
      10  | 54:12.55 |    5:39.46   |      243955      |     269425     
      11  | 59:52.26 |    7:02.04   |      269426      |     301079     
      12  | 66:54.30 |    5:48.04   |      301080      |     327183     

Трек  1

     Имя файла C:\2\[Flac] (various) House Line 6\CD - 01\01 Трек01.wav

     Длина предзазора  0:00:02.00

     Пиковый уровень 99.9 %
     Скорость извлечения 2.6 X
     Качество трека 100.0 %
     CRC теста A3854ECD
     CRC копии A3854ECD
     Трек не обнаружен в базе AccurateRip
     Копирование... OK

Трек  2

     Имя файла C:\2\[Flac] (various) House Line 6\CD - 01\02 Трек02.wav

     Длина предзазора  0:00:02.00

     Пиковый уровень 100.0 %
     Скорость извлечения 1.5 X
     Качество трека 100.0 %
     CRC теста 75E2BAF7
     CRC копии 75E2BAF7
     Трек не обнаружен в базе AccurateRip
     Копирование... OK

Трек  3

     Имя файла C:\2\[Flac] (various) House Line 6\CD - 01\03 Трек03.wav

     Длина предзазора  0:00:02.00

     Пиковый уровень 89.0 %
     Скорость извлечения 3.2 X
     Качество трека 100.0 %
     CRC теста 84E37618
     CRC копии 84E37618
     Трек не обнаружен в базе AccurateRip
     Копирование... OK

Трек  4

     Имя файла C:\2\[Flac] (various) House Line 6\CD - 01\04 Трек04.wav

     Длина предзазора  0:00:02.00

     Пиковый уровень 98.0 %
     Скорость извлечения 1.9 X
     Качество трека 100.0 %
     CRC теста 06883EC9
     CRC копии 06883EC9
     Трек не обнаружен в базе AccurateRip
     Копирование... OK

Трек  5

     Имя файла C:\2\[Flac] (various) House Line 6\CD - 01\05 Трек05.wav

     Длина предзазора  0:00:02.00

     Пиковый уровень 100.0 %
     Скорость извлечения 2.8 X
     Качество трека 100.0 %
     CRC теста 151E52DC
     CRC копии 151E52DC
     Трек не обнаружен в базе AccurateRip
     Копирование... OK

Трек  6

     Имя файла C:\2\[Flac] (various) House Line 6\CD - 01\06 Трек06.wav

     Длина предзазора  0:00:02.00

     Пиковый уровень 100.0 %
     Скорость извлечения 3.1 X
     Качество трека 99.9 %
     CRC теста 18E48C9F
     CRC копии 18E48C9F
     Трек не обнаружен в базе AccurateRip
     Копирование... OK

Трек  7

     Имя файла C:\2\[Flac] (various) House Line 6\CD - 01\07 Трек07.wav

     Длина предзазора  0:00:02.00

     Пиковый уровень 100.0 %
     Скорость извлечения 3.7 X
     Качество трека 100.0 %
     CRC теста F472916F
     CRC копии F472916F
     Трек не обнаружен в базе AccurateRip
     Копирование... OK

Трек  8

     Имя файла C:\2\[Flac] (various) House Line 6\CD - 01\08 Трек08.wav

     Длина предзазора  0:00:02.00

     Пиковый уровень 98.0 %
     Скорость извлечения 0.3 X
     Качество трека 99.9 %
     CRC теста 5DA65DB3
     CRC копии 5DA65DB3
     Трек не обнаружен в базе AccurateRip
     Копирование... OK

Трек  9

     Имя файла C:\2\[Flac] (various) House Line 6\CD - 01\09 Трек09.wav

     Длина предзазора  0:00:02.00

     Пиковый уровень 100.0 %
     Скорость извлечения 4.8 X
     Качество трека 100.0 %
     CRC теста FD992E0B
     CRC копии FD992E0B
     Трек не обнаружен в базе AccurateRip
     Копирование... OK

Трек 10

     Имя файла C:\2\[Flac] (various) House Line 6\CD - 01\10 Трек10.wav

     Длина предзазора  0:00:02.00

     Пиковый уровень 100.0 %
     Скорость извлечения 3.8 X
     Качество трека 99.9 %
     CRC теста 82B5EC40
     CRC копии 82B5EC40
     Трек не обнаружен в базе AccurateRip
     Копирование... OK

Трек 11

     Имя файла C:\2\[Flac] (various) House Line 6\CD - 01\11 Трек11.wav

     Длина предзазора  0:00:02.00

     Пиковый уровень 100.0 %
     Скорость извлечения 5.3 X
     Качество трека 100.0 %
     CRC теста C423BAD8
     CRC копии C423BAD8
     Трек не обнаружен в базе AccurateRip
     Копирование... OK

Трек 12

     Имя файла C:\2\[Flac] (various) House Line 6\CD - 01\12 Трек12.wav

     Длина предзазора  0:00:02.00

     Пиковый уровень 100.0 %
     Скорость извлечения 5.4 X
     Качество трека 100.0 %
     CRC теста 467BB897
     CRC копии 467BB897
     Трек не обнаружен в базе AccurateRip
     Копирование... OK

Ни одного трека нет в базе AccurateRip

Ошибок не произошло

Конец отчёта

---- CUETools DB Plugin V2.1.3

[CTDB TOCID: FZm85t7eYyMb4ZpatKO5HefY9mU-] database access error: Невозможно разрешить удаленное имя: 'db.cuetools.net'

==== Контрольная сумма отчёта 45D6C97F3A837A0F10EAFA95671DFB90D06B5F68EE1AE609AFEFF4E668037A7A ====

Код:

Exact Audio Copy V1.0 beta 3 from 29. August 2011

Отчёт EAC об извлечении, выполненном 18. июня 2013, 18:24

Various Artist / 1997 House Line 06 CD-02

Дисковод: TSSTcorpBDDVDW SE-506AB   Adapter: 2  ID: 0

Режим чтения                 : Достоверность
Использование точного потока : Да
Отключение кэша аудио        : Да
Использование указателей C2  : Нет

Коррекция смещения при чтении                     : 6
Способность читать области Lead-in и Lead-out     : Нет
Заполнение пропущенных сэмплов тишиной            : Да
Удаление блоков с тишиной в начале и конце        : Нет
При вычислениях CRC использовались нулевые сэмплы : Да
Интерфейс                                         : Встроенный Win32-интерфейс для Win NT/2000
Обработка зазоров                                 : Добавлено к предыдущему треку

Выходной формат : Внутренние WAV-операции
Формат сэмплов  : 44.100 Гц; 16 бит; стерео

TOC извлечённого CD

     Трек |   Старт  | Длительность | Начальный сектор | Конечный сектор
    ---------------------------------------------------------------------
       1  |  0:00.00 |    6:33.15   |           0      |      29489     
       2  |  6:33.15 |    5:50.39   |       29490      |      55778     
       3  | 12:23.54 |    5:07.70   |       55779      |      78873     
       4  | 17:31.49 |    5:13.21   |       78874      |     102369     
       5  | 22:44.70 |    5:44.22   |      102370      |     128191     
       6  | 28:29.17 |    4:53.21   |      128192      |     150187     
       7  | 33:22.38 |    6:28.06   |      150188      |     179293     
       8  | 39:50.44 |    6:43.58   |      179294      |     209576     
       9  | 46:34.27 |    6:19.12   |      209577      |     238013     
      10  | 52:53.39 |    5:45.63   |      238014      |     263951     
      11  | 58:39.27 |    5:54.00   |      263952      |     290501     
      12  | 64:33.27 |    6:15.62   |      290502      |     318688     

Трек  1

     Имя файла C:\2\[Flac] (various) House Line 6\CD - 02\01 Трек01.wav

     Длина предзазора  0:00:02.00

     Пиковый уровень 100.0 %
     Скорость извлечения 2.4 X
     Качество трека 100.0 %
     CRC теста 01EC729A
     CRC копии 01EC729A
     Трек не обнаружен в базе AccurateRip
     Копирование... OK

Трек  2

     Имя файла C:\2\[Flac] (various) House Line 6\CD - 02\02 Трек02.wav

     Длина предзазора  0:00:02.00

     Пиковый уровень 100.0 %
     Скорость извлечения 2.4 X
     Качество трека 100.0 %
     CRC теста 87EC24A3
     CRC копии 87EC24A3
     Трек не обнаружен в базе AccurateRip
     Копирование... OK

Трек  3

     Имя файла C:\2\[Flac] (various) House Line 6\CD - 02\03 Трек03.wav

     Длина предзазора  0:00:02.00

     Пиковый уровень 99.9 %
     Скорость извлечения 2.6 X
     Качество трека 100.0 %
     CRC теста D9BB8AF5
     CRC копии D9BB8AF5
     Трек не обнаружен в базе AccurateRip
     Копирование... OK

Трек  4

     Имя файла C:\2\[Flac] (various) House Line 6\CD - 02\04 Трек04.wav

     Длина предзазора  0:00:02.00

     Пиковый уровень 100.0 %
     Скорость извлечения 2.7 X
     Качество трека 100.0 %
     CRC теста 9266EBE7
     CRC копии 9266EBE7
     Трек не обнаружен в базе AccurateRip
     Копирование... OK

Трек  5

     Имя файла C:\2\[Flac] (various) House Line 6\CD - 02\05 Трек05.wav

     Длина предзазора  0:00:02.00

     Пиковый уровень 100.0 %
     Скорость извлечения 1.7 X
     Качество трека 99.9 %
     CRC теста C5E1080F
     CRC копии C5E1080F
     Трек не обнаружен в базе AccurateRip
     Копирование... OK

Трек  6

     Имя файла C:\2\[Flac] (various) House Line 6\CD - 02\06 Трек06.wav

     Длина предзазора  0:00:02.00

     Пиковый уровень 100.0 %
     Скорость извлечения 1.8 X
     Качество трека 99.9 %
     CRC теста 37E55DA2
     CRC копии 37E55DA2
     Трек не обнаружен в базе AccurateRip
     Копирование... OK

Трек  7

     Имя файла C:\2\[Flac] (various) House Line 6\CD - 02\07 Трек07.wav

     Длина предзазора  0:00:02.00

     Пиковый уровень 99.9 %
     Скорость извлечения 2.0 X
     Качество трека 99.9 %
     CRC теста 3DA8F8FE
     CRC копии 3DA8F8FE
     Трек не обнаружен в базе AccurateRip
     Копирование... OK

Трек  8

     Имя файла C:\2\[Flac] (various) House Line 6\CD - 02\08 Трек08.wav

     Длина предзазора  0:00:02.00

     Пиковый уровень 100.0 %
     Скорость извлечения 0.3 X
     Качество трека 99.9 %
     CRC теста 17F5E3AB
     CRC копии 17F5E3AB
     Трек не обнаружен в базе AccurateRip
     Копирование... OK

Трек  9

     Имя файла C:\2\[Flac] (various) House Line 6\CD - 02\09 Трек09.wav

     Длина предзазора  0:00:02.00

     Пиковый уровень 100.0 %
     Скорость извлечения 3.0 X
     Качество трека 99.9 %
     CRC теста 5865981A
     CRC копии 5865981A
     Трек не обнаружен в базе AccurateRip
     Копирование... OK

Трек 10

     Имя файла C:\2\[Flac] (various) House Line 6\CD - 02\10 Трек10.wav

     Длина предзазора  0:00:02.00

     Пиковый уровень 100.0 %
     Скорость извлечения 3.5 X
     Качество трека 99.9 %
     CRC теста 1F6515CE
     CRC копии 1F6515CE
     Трек не обнаружен в базе AccurateRip
     Копирование... OK

Трек 11

     Имя файла C:\2\[Flac] (various) House Line 6\CD - 02\11 Трек11.wav

     Длина предзазора  0:00:02.00

     Пиковый уровень 99.9 %
     Скорость извлечения 5.1 X
     Качество трека 100.0 %
     CRC теста 3D3FC828
     CRC копии 3D3FC828
     Трек не обнаружен в базе AccurateRip
     Копирование... OK

Трек 12

     Имя файла C:\2\[Flac] (various) House Line 6\CD - 02\12 Трек12.wav

     Длина предзазора  0:00:02.00

     Пиковый уровень 99.9 %
     Скорость извлечения 4.1 X
     Качество трека 99.9 %
     CRC теста FBD2A575
     CRC копии FBD2A575
     Трек не обнаружен в базе AccurateRip
     Копирование... OK

Ни одного трека нет в базе AccurateRip

Ошибок не произошло

Конец отчёта

---- CUETools DB Plugin V2.1.3

[CTDB TOCID: qs4lyjMsX0KEG99HFWQMDkmqpNE-] database access error: Невозможно разрешить удаленное имя: 'db.cuetools.net'

==== Контрольная сумма отчёта BC8FDB1B091B8CFFC99F7AAA7696EE85290B26CA0EBA8D6D4931992DB98EE692 ====

Страница 1 из 1

new_topic  reply_topic

Текущее время: 06-Май 19:14
Часовой пояс: GMT + 4

m Сделано с любовью PR-CY.ru Каталог webplus.info