Вход на сайт

Имя:
Пароль:

· Забыли пароль?
logo
Портал Форум
Регистрация Вход


new_topic  reply_topic

  (House) Various ‎– House Line 3 1997, WAV (tracks + .cue), lossless

pic
Год выпуска: 1997
Страна: Germany
Жанр: House
Номер #: Dance Paradise - INT 260.322
Тип издания: сборник
Аудио кодек: WAV
Тип рипа: (tracks + .cue)
Битрейт аудио: lossless

Треклист:

CD1:
01. Interactive - Wake Up (Club Mix)
02. C-Mania - Cross My Mind (Original Version)
03. Milk Incorporated - La Vache (Vibrodworf's Mix)
04. Groove Club - Peace & Love (United Love Mix)
05. Masque - Beyond Your Dreams (Extended Night Mix)
06. General Base - On & On (Dub Version)
07. DJ The Crow - Piece Of Mine (Progressive Club Mix)
08. Real Stuff - Club It (Normal Mix)
09. DJ Schwede - Boom Boom (Dance Version Mix)
10. Skanky - Where's My Money (No Job Mix)
11. DJ Panda - True Life (Original Instrumental)
12. Solar Base - Jeannie's Return (House Arzate Remix)


CD2:
01. Energy 52 - Cafe Del Mar (Three'n One Remix)
02. D.O.N.S. - Drop The Gun (Extended Mix)
03. Armand Van Helden - Witch Doctor
04. Central Seven - The Opera (Extended Mix)
05. Amen! UK - Passion (Original Wand Mix)
06. Hypnotic Beat - Funky Divas (Club Mix)
07. Source, The - You Got The Love (Now Voyager Mix)
08. Time Motion Project - Out Of Time (Club Mix)
09. DJ Jan - X-Santo (Original Mix)
10. Lighthouse - The Move (Ultra Dance)
11. Ego 7 - I Got To Hold On (Rescue Mix)
12. Hocus Pocus - Vibrator (Club Edit Instrumental)


Доп. информация:
2 × CD, Compilation (UnMixed) FullTracks
_______________________________________________
http://www.discogs.com/Various-House-Line-3/release/878164

Код:

Exact Audio Copy V1.0 beta 3 from 29. August 2011

Отчёт EAC об извлечении, выполненном 18. июня 2013, 21:45

Various Artist / 1997 House Line 03 CD-01

Дисковод: TSSTcorpBDDVDW SE-506AB   Adapter: 2  ID: 0

Режим чтения                 : Достоверность
Использование точного потока : Да
Отключение кэша аудио        : Да
Использование указателей C2  : Нет

Коррекция смещения при чтении                     : 6
Способность читать области Lead-in и Lead-out     : Нет
Заполнение пропущенных сэмплов тишиной            : Да
Удаление блоков с тишиной в начале и конце        : Нет
При вычислениях CRC использовались нулевые сэмплы : Да
Интерфейс                                         : Встроенный Win32-интерфейс для Win NT/2000
Обработка зазоров                                 : Добавлено к предыдущему треку

Выходной формат : Внутренние WAV-операции
Формат сэмплов  : 44.100 Гц; 16 бит; стерео

TOC извлечённого CD

     Трек |   Старт  | Длительность | Начальный сектор | Конечный сектор
    ---------------------------------------------------------------------
       1  |  0:00.00 |    6:32.16   |           0      |      29415     
       2  |  6:32.16 |    6:01.55   |       29416      |      56545     
       3  | 12:33.71 |    5:02.47   |       56546      |      79242     
       4  | 17:36.43 |    6:33.64   |       79243      |     108781     
       5  | 24:10.32 |    5:04.54   |      108782      |     131635     
       6  | 29:15.11 |    5:50.23   |      131636      |     157908     
       7  | 35:05.34 |    6:01.00   |      157909      |     184983     
       8  | 41:06.34 |    5:22.27   |      184984      |     209160     
       9  | 46:28.61 |    4:59.19   |      209161      |     231604     
      10  | 51:28.05 |    5:13.39   |      231605      |     255118     
      11  | 56:41.44 |    8:00.06   |      255119      |     291124     
      12  | 64:41.50 |    5:29.33   |      291125      |     315832     

Трек  1

     Имя файла C:\2\[Flac] (various) House Line 3\CD - 01\01 Трек01.wav

     Длина предзазора  0:00:02.00

     Пиковый уровень 99.9 %
     Скорость извлечения 1.3 X
     Качество трека 100.0 %
     CRC теста 8FDB433D
     CRC копии 8FDB433D
     Трек не обнаружен в базе AccurateRip
     Копирование... OK

Трек  2

     Имя файла C:\2\[Flac] (various) House Line 3\CD - 01\02 Трек02.wav

     Длина предзазора  0:00:02.00

     Пиковый уровень 90.8 %
     Скорость извлечения 1.5 X
     Качество трека 100.0 %
     CRC теста 2B928B90
     CRC копии 2B928B90
     Трек не обнаружен в базе AccurateRip
     Копирование... OK

Трек  3

     Имя файла C:\2\[Flac] (various) House Line 3\CD - 01\03 Трек03.wav

     Длина предзазора  0:00:02.00

     Пиковый уровень 100.0 %
     Скорость извлечения 1.6 X
     Качество трека 100.0 %
     CRC теста 1B76A82E
     CRC копии 1B76A82E
     Трек не обнаружен в базе AccurateRip
     Копирование... OK

Трек  4

     Имя файла C:\2\[Flac] (various) House Line 3\CD - 01\04 Трек04.wav

     Длина предзазора  0:00:02.00

     Пиковый уровень 100.0 %
     Скорость извлечения 0.4 X
     Качество трека 100.0 %
     CRC теста E41B92FA
     CRC копии E41B92FA
     Трек не обнаружен в базе AccurateRip
     Копирование... OK

Трек  5

     Имя файла C:\2\[Flac] (various) House Line 3\CD - 01\05 Трек05.wav

     Длина предзазора  0:00:02.00

     Пиковый уровень 99.9 %
     Скорость извлечения 1.9 X
     Качество трека 100.0 %
     CRC теста BBD4AFF7
     CRC копии BBD4AFF7
     Трек не обнаружен в базе AccurateRip
     Копирование... OK

Трек  6

     Имя файла C:\2\[Flac] (various) House Line 3\CD - 01\06 Трек06.wav

     Длина предзазора  0:00:02.00

     Пиковый уровень 98.8 %
     Скорость извлечения 2.0 X
     Качество трека 100.0 %
     CRC теста EF5C5354
     CRC копии EF5C5354
     Трек не обнаружен в базе AccurateRip
     Копирование... OK

Трек  7

     Имя файла C:\2\[Flac] (various) House Line 3\CD - 01\07 Трек07.wav

     Длина предзазора  0:00:02.00

     Пиковый уровень 100.0 %
     Скорость извлечения 2.1 X
     Качество трека 100.0 %
     CRC теста A42FFF67
     CRC копии A42FFF67
     Трек не обнаружен в базе AccurateRip
     Копирование... OK

Трек  8

     Имя файла C:\2\[Flac] (various) House Line 3\CD - 01\08 Трек08.wav

     Длина предзазора  0:00:02.00

     Пиковый уровень 99.9 %
     Скорость извлечения 2.0 X
     Качество трека 99.9 %
     CRC теста 0FD4A652
     CRC копии 0FD4A652
     Трек не обнаружен в базе AccurateRip
     Копирование... OK

Трек  9

     Имя файла C:\2\[Flac] (various) House Line 3\CD - 01\09 Трек09.wav

     Длина предзазора  0:00:02.00

     Пиковый уровень 97.8 %
     Скорость извлечения 2.3 X
     Качество трека 100.0 %
     CRC теста 07FCFB6D
     CRC копии 07FCFB6D
     Трек не обнаружен в базе AccurateRip
     Копирование... OK

Трек 10

     Имя файла C:\2\[Flac] (various) House Line 3\CD - 01\10 Трек10.wav

     Длина предзазора  0:00:02.00

     Пиковый уровень 99.9 %
     Скорость извлечения 0.3 X
     Качество трека 100.0 %
     CRC теста 37026FBD
     CRC копии 37026FBD
     Трек не обнаружен в базе AccurateRip
     Копирование... OK

Трек 11

     Имя файла C:\2\[Flac] (various) House Line 3\CD - 01\11 Трек11.wav

     Длина предзазора  0:00:02.00

     Пиковый уровень 98.8 %
     Скорость извлечения 2.4 X
     Качество трека 99.9 %
     CRC теста 95B22540
     CRC копии 95B22540
     Трек не обнаружен в базе AccurateRip
     Копирование... OK

Трек 12

     Имя файла C:\2\[Flac] (various) House Line 3\CD - 01\12 Трек12.wav

     Длина предзазора  0:00:02.00

     Пиковый уровень 100.0 %
     Скорость извлечения 2.6 X
     Качество трека 100.0 %
     CRC теста E10265B3
     CRC копии E10265B3
     Трек не обнаружен в базе AccurateRip
     Копирование... OK

Ни одного трека нет в базе AccurateRip

Ошибок не произошло

Конец отчёта

---- CUETools DB Plugin V2.1.3

[CTDB TOCID: Trq8dNQbMXuxNVPwkaKal1YIuBo-] database access error: Невозможно разрешить удаленное имя: 'db.cuetools.net'

==== Контрольная сумма отчёта F7948935CC087C81AA4E02959D0AC7B087B65C44A248C4DCF6C1543EDF1FC9F1 ====

Код:

Exact Audio Copy V1.0 beta 3 from 29. August 2011

Отчёт EAC об извлечении, выполненном 18. июня 2013, 23:06

Various Artist / 1997 House Line 03 CD-02

Дисковод: TSSTcorpBDDVDW SE-506AB   Adapter: 2  ID: 0

Режим чтения                 : Достоверность
Использование точного потока : Да
Отключение кэша аудио        : Да
Использование указателей C2  : Нет

Коррекция смещения при чтении                     : 6
Способность читать области Lead-in и Lead-out     : Нет
Заполнение пропущенных сэмплов тишиной            : Да
Удаление блоков с тишиной в начале и конце        : Нет
При вычислениях CRC использовались нулевые сэмплы : Да
Интерфейс                                         : Встроенный Win32-интерфейс для Win NT/2000
Обработка зазоров                                 : Добавлено к предыдущему треку

Выходной формат : Внутренние WAV-операции
Формат сэмплов  : 44.100 Гц; 16 бит; стерео

TOC извлечённого CD

     Трек |   Старт  | Длительность | Начальный сектор | Конечный сектор
    ---------------------------------------------------------------------
       1  |  0:00.00 |    8:43.68   |           0      |      39292     
       2  |  8:43.68 |    6:06.69   |       39293      |      66811     
       3  | 14:50.62 |    6:47.64   |       66812      |      97400     
       4  | 21:38.51 |    6:09.67   |       97401      |     125142     
       5  | 27:48.43 |    8:48.02   |      125143      |     164744     
       6  | 36:36.45 |    4:30.49   |      164745      |     185043     
       7  | 41:07.19 |    6:06.45   |      185044      |     212538     
       8  | 47:13.64 |    3:43.18   |      212539      |     229281     
       9  | 50:57.07 |    5:44.27   |      229282      |     255108     
      10  | 56:41.34 |    4:27.09   |      255109      |     275142     
      11  | 61:08.43 |    6:37.59   |      275143      |     304976     
      12  | 67:46.27 |    5:50.56   |      304977      |     331282     

Трек  1

     Имя файла C:\2\[Flac] (various) House Line 3\CD - 02\01 Трек01.wav

     Длина предзазора  0:00:02.00

     Пиковый уровень 97.7 %
     Скорость извлечения 1.9 X
     Качество трека 99.9 %
     CRC теста 91F253C7
     CRC копии 91F253C7
     Трек не обнаружен в базе AccurateRip
     Копирование... OK

Трек  2

     Имя файла C:\2\[Flac] (various) House Line 3\CD - 02\02 Трек02.wav

     Длина предзазора  0:00:02.00

     Пиковый уровень 98.1 %
     Скорость извлечения 2.3 X
     Качество трека 100.0 %
     CRC теста E40E8C8E
     CRC копии E40E8C8E
     Трек не обнаружен в базе AccurateRip
     Копирование... OK

Трек  3

     Имя файла C:\2\[Flac] (various) House Line 3\CD - 02\03 Трек03.wav

     Длина предзазора  0:00:02.00

     Пиковый уровень 94.9 %
     Скорость извлечения 1.8 X
     Качество трека 100.0 %
     CRC теста 361ED0C4
     CRC копии 361ED0C4
     Трек не обнаружен в базе AccurateRip
     Копирование... OK

Трек  4

     Имя файла C:\2\[Flac] (various) House Line 3\CD - 02\04 Трек04.wav

     Длина предзазора  0:00:02.01

     Пиковый уровень 100.0 %
     Скорость извлечения 2.9 X
     Качество трека 100.0 %
     CRC теста B457AF7D
     CRC копии B457AF7D
     Трек не обнаружен в базе AccurateRip
     Копирование... OK

Трек  5

     Имя файла C:\2\[Flac] (various) House Line 3\CD - 02\05 Трек05.wav

     Длина предзазора  0:00:02.00

     Пиковый уровень 98.6 %
     Скорость извлечения 0.5 X
     Качество трека 100.0 %
     CRC теста 67B2B1D6
     CRC копии 67B2B1D6
     Трек не обнаружен в базе AccurateRip
     Копирование... OK

Трек  6

     Имя файла C:\2\[Flac] (various) House Line 3\CD - 02\06 Трек06.wav

     Длина предзазора  0:00:02.00

     Пиковый уровень 100.0 %
     Скорость извлечения 3.1 X
     Качество трека 100.0 %
     CRC теста CF8C676C
     CRC копии CF8C676C
     Трек не обнаружен в базе AccurateRip
     Копирование... OK

Трек  7

     Имя файла C:\2\[Flac] (various) House Line 3\CD - 02\07 Трек07.wav

     Длина предзазора  0:00:02.00

     Пиковый уровень 94.9 %
     Скорость извлечения 4.0 X
     Качество трека 100.0 %
     CRC теста 9B7E9E8C
     CRC копии 9B7E9E8C
     Трек не обнаружен в базе AccurateRip
     Копирование... OK

Трек  8

     Имя файла C:\2\[Flac] (various) House Line 3\CD - 02\08 Трек08.wav

     Длина предзазора  0:00:02.00

     Пиковый уровень 100.0 %
     Скорость извлечения 3.0 X
     Качество трека 100.0 %
     CRC теста 0CAFDD6F
     CRC копии 0CAFDD6F
     Трек не обнаружен в базе AccurateRip
     Копирование... OK

Трек  9

     Имя файла C:\2\[Flac] (various) House Line 3\CD - 02\09 Трек09.wav

     Длина предзазора  0:00:02.00

     Пиковый уровень 94.9 %
     Скорость извлечения 4.2 X
     Качество трека 100.0 %
     CRC теста A06635E2
     CRC копии A06635E2
     Трек не обнаружен в базе AccurateRip
     Копирование... OK

Трек 10

     Имя файла C:\2\[Flac] (various) House Line 3\CD - 02\10 Трек10.wav

     Длина предзазора  0:00:02.00

     Пиковый уровень 100.0 %
     Скорость извлечения 1.6 X
     Качество трека 99.7 %
     CRC теста F6B7463D
     CRC копии F6B7463D
     Трек не обнаружен в базе AccurateRip
     Копирование... OK

Трек 11

     Имя файла C:\2\[Flac] (various) House Line 3\CD - 02\11 Трек11.wav

     Длина предзазора  0:00:02.00

     Пиковый уровень 99.9 %
     Скорость извлечения 4.6 X
     Качество трека 100.0 %
     CRC теста FE4A383E
     CRC копии FE4A383E
     Трек не обнаружен в базе AccurateRip
     Копирование... OK

Трек 12

     Имя файла C:\2\[Flac] (various) House Line 3\CD - 02\12 Трек12.wav

     Длина предзазора  0:00:02.00

     Пиковый уровень 100.0 %
     Скорость извлечения 4.7 X
     Качество трека 100.0 %
     CRC теста BDC491E0
     CRC копии BDC491E0
     Трек не обнаружен в базе AccurateRip
     Копирование... OK

Ни одного трека нет в базе AccurateRip

Ошибок не произошло

Конец отчёта

---- CUETools DB Plugin V2.1.3

[CTDB TOCID: lXMxhjJ9S65kyNLeAwhzeMxXQ4g-] database access error: Невозможно разрешить удаленное имя: 'db.cuetools.net'

==== Контрольная сумма отчёта A39B29A119C1F5B0E37480E4FA48B2AB6DF7C13BAE2AE51FD468B347DE3E60D0 ====

Страница 1 из 1

new_topic  reply_topic

Текущее время: 06-Май 19:10
Часовой пояс: GMT + 4

m Сделано с любовью PR-CY.ru Каталог webplus.info