Вход на сайт

Имя:
Пароль:

· Забыли пароль?
logo
Портал Форум
Регистрация Вход


new_topic  reply_topic

  (House) Various ‎- House Line 2 1996, WAV (tracks + .cue), lossless

pic
Год выпуска: 1996
Страна: Germany
Жанр: House
Номер #: Dance Paradise - INT 860.318
Тип издания: сборник
Аудио кодек: WAV
Тип рипа: (tracks + .cue)
Битрейт аудио: lossless

Треклист:

CD1:
01. 666 - Diablo (Extended 666-Mix)
02. Mazza & Go. - Bitter Sweet Symphony (Club Mix)
03. Central Seven - Error (Extended Edit)
04. N.Y.C.C. - Fight For Your Right (Extended Version)
05. Triple S. - Whoomp!(There It Is) (DJ Disco Mix)
06. DJ Supreme - Tha Horns Of Jericho (Extended Mix)
07. Blank & Jones - Heartbeat (Club Mix)
08. Housemax - Push It (Max Deejay vs. Lac Terra Remix)
09. DJ Scot Projekt - X2(Time Is Now) (Club Mix)
10. DJ Dimitri - Voice (Vector Mode RMX)
11. Paraphonatic - As Time Goes By


CD2:
01. Koala - Indian Spirits (Club Base)
02. DJ Panda - Listen (Club Speed Version)
03. DJ Silencer vs. Zycro - Birthday Party (Extended Version)
04. N4N - Dreaming Wild (Club Base)
05. N.Y.P.D. - Funky Crime (Extended)
06. DJ's Attack - Floor Fever (Space Trip)
07. Bad Posse - Here We Go Again (Extended Version)
08. Bounce # 9 - Der Mussolini (Extended Mix)
09. Buzz - Love Junkies (Head Over Heals In Love Mix)
10. Nation 4 Nation - Gate No. 17 (Extended Version)
11. The Laconic - Energy (Club Energy)
12. Accrochage - Illuminate (Maxi Edit)


Доп. информация:
2 × CD, Compilation (UnMixed) FullTracks
_______________________________________________
http://www.discogs.com/Various-House-Line-2/release/566125

Код:

Exact Audio Copy V1.0 beta 3 from 29. August 2011

Отчёт EAC об извлечении, выполненном 17. июня 2013, 16:33

Various Artist / 1996 House Line 02 CD-01

Дисковод: TSSTcorpBDDVDW SE-506AB   Adapter: 2  ID: 0

Режим чтения                 : Достоверность
Использование точного потока : Да
Отключение кэша аудио        : Да
Использование указателей C2  : Нет

Коррекция смещения при чтении                     : 6
Способность читать области Lead-in и Lead-out     : Нет
Заполнение пропущенных сэмплов тишиной            : Да
Удаление блоков с тишиной в начале и конце        : Нет
При вычислениях CRC использовались нулевые сэмплы : Да
Интерфейс                                         : Встроенный Win32-интерфейс для Win NT/2000
Обработка зазоров                                 : Добавлено к предыдущему треку

Выходной формат : Внутренние WAV-операции
Формат сэмплов  : 44.100 Гц; 16 бит; стерео

TOC извлечённого CD

     Трек |   Старт  | Длительность | Начальный сектор | Конечный сектор
    ---------------------------------------------------------------------
       1  |  0:00.00 |    4:34.38   |           0      |      20587     
       2  |  4:34.38 |    5:26.24   |       20588      |      45061     
       3  | 10:00.62 |    7:12.53   |       45062      |      77514     
       4  | 17:13.40 |    6:34.56   |       77515      |     107120     
       5  | 23:48.21 |    4:11.73   |      107121      |     126018     
       6  | 28:00.19 |    5:13.19   |      126019      |     149512     
       7  | 33:13.38 |    6:04.12   |      149513      |     176824     
       8  | 39:17.50 |    4:52.32   |      176825      |     198756     
       9  | 44:10.07 |    7:16.56   |      198757      |     231512     
      10  | 51:26.63 |    5:40.58   |      231513      |     257070     
      11  | 57:07.46 |    5:43.21   |      257071      |     282816     
      12  | 62:50.67 |    3:55.26   |      282817      |     300467     
      13  | 66:46.18 |    5:35.38   |      300468      |     325630     

Трек  1

     Имя файла C:\2\[Flac] (various) House Line 2\CD - 01\01 Трек01.wav

     Длина предзазора  0:00:02.00

     Пиковый уровень 100.0 %
     Скорость извлечения 2.1 X
     Качество трека 100.0 %
     CRC теста 04959607
     CRC копии 04959607
     Трек не обнаружен в базе AccurateRip
     Копирование... OK

Трек  2

     Имя файла C:\2\[Flac] (various) House Line 2\CD - 01\02 Трек02.wav

     Длина предзазора  0:00:02.00

     Пиковый уровень 100.0 %
     Скорость извлечения 1.3 X
     Качество трека 99.9 %
     CRC теста EF8E7A88
     CRC копии EF8E7A88
     Трек не обнаружен в базе AccurateRip
     Копирование... OK

Трек  3

     Имя файла C:\2\[Flac] (various) House Line 2\CD - 01\03 Трек03.wav

     Длина предзазора  0:00:02.00

     Пиковый уровень 100.0 %
     Скорость извлечения 2.5 X
     Качество трека 100.0 %
     CRC теста 70D60FD5
     CRC копии 70D60FD5
     Трек не обнаружен в базе AccurateRip
     Копирование... OK

Трек  4

     Имя файла C:\2\[Flac] (various) House Line 2\CD - 01\04 Трек04.wav

     Длина предзазора  0:00:02.00

     Пиковый уровень 100.0 %
     Скорость извлечения 2.5 X
     Качество трека 99.9 %
     CRC теста F0B6869E
     CRC копии F0B6869E
     Трек не обнаружен в базе AccurateRip
     Копирование... OK

Трек  5

     Имя файла C:\2\[Flac] (various) House Line 2\CD - 01\05 Трек05.wav

     Длина предзазора  0:00:02.00

     Пиковый уровень 94.9 %
     Скорость извлечения 2.4 X
     Качество трека 99.9 %
     CRC теста 790C6F69
     CRC копии 790C6F69
     Трек не обнаружен в базе AccurateRip
     Копирование... OK

Трек  6

     Имя файла C:\2\[Flac] (various) House Line 2\CD - 01\06 Трек06.wav

     Длина предзазора  0:00:02.00

     Пиковый уровень 100.0 %
     Скорость извлечения 0.3 X
     Качество трека 99.9 %
     CRC теста 1E4E94FC
     CRC копии 1E4E94FC
     Трек не обнаружен в базе AccurateRip
     Копирование... OK

Трек  7

     Имя файла C:\2\[Flac] (various) House Line 2\CD - 01\07 Трек07.wav

     Длина предзазора  0:00:02.00

     Пиковый уровень 100.0 %
     Скорость извлечения 2.5 X
     Качество трека 99.9 %
     CRC теста E17E3BE6
     CRC копии E17E3BE6
     Трек не обнаружен в базе AccurateRip
     Копирование... OK

Трек  8

     Имя файла C:\2\[Flac] (various) House Line 2\CD - 01\08 Трек08.wav

     Длина предзазора  0:00:02.00

     Пиковый уровень 100.0 %
     Скорость извлечения 2.2 X
     Качество трека 100.0 %
     CRC теста 474505E7
     CRC копии 474505E7
     Трек не обнаружен в базе AccurateRip
     Копирование... OK

Трек  9

     Имя файла C:\2\[Flac] (various) House Line 2\CD - 01\09 Трек09.wav

     Длина предзазора  0:00:02.00

     Пиковый уровень 94.9 %
     Скорость извлечения 2.3 X
     Качество трека 99.9 %
     CRC теста 02F426E2
     CRC копии 02F426E2
     Трек не обнаружен в базе AccurateRip
     Копирование... OK

Трек 10

     Имя файла C:\2\[Flac] (various) House Line 2\CD - 01\10 Трек10.wav

     Длина предзазора  0:00:02.00

     Пиковый уровень 99.9 %
     Скорость извлечения 4.2 X
     Качество трека 100.0 %
     CRC теста 58EAD6B4
     CRC копии 58EAD6B4
     Трек не обнаружен в базе AccurateRip
     Копирование... OK

Трек 11

     Имя файла C:\2\[Flac] (various) House Line 2\CD - 01\11 Трек11.wav

     Длина предзазора  0:00:02.00

     Пиковый уровень 100.0 %
     Скорость извлечения 4.1 X
     Качество трека 99.9 %
     CRC теста 086F1690
     CRC копии 086F1690
     Трек не обнаружен в базе AccurateRip
     Копирование... OK

Трек 12

     Имя файла C:\2\[Flac] (various) House Line 2\CD - 01\12 Трек12.wav

     Длина предзазора  0:00:02.00

     Пиковый уровень 99.9 %
     Скорость извлечения 2.5 X
     Качество трека 99.9 %
     CRC теста 614D13CD
     CRC копии 614D13CD
     Трек не обнаружен в базе AccurateRip
     Копирование... OK

Трек 13

     Имя файла C:\2\[Flac] (various) House Line 2\CD - 01\13 Трек13.wav

     Длина предзазора  0:00:02.00

     Пиковый уровень 99.9 %
     Скорость извлечения 3.0 X
     Качество трека 99.9 %
     CRC теста 22A8027A
     CRC копии 22A8027A
     Трек не обнаружен в базе AccurateRip
     Копирование... OK

Ни одного трека нет в базе AccurateRip

Ошибок не произошло

Конец отчёта

---- CUETools DB Plugin V2.1.3

[CTDB TOCID: Wa2a8gtCUIEQqBePEtOJsQn0sEI-] database access error: Невозможно разрешить удаленное имя: 'db.cuetools.net'

==== Контрольная сумма отчёта 489EE64BCE44B2076B9893FF522074A81A567DBB04A16539C45606977E55CB82 ====

Код:

Exact Audio Copy V1.0 beta 3 from 29. August 2011

Отчёт EAC об извлечении, выполненном 17. июня 2013, 17:53

Various Artist / 1996 House Line 02 CD-02

Дисковод: TSSTcorpBDDVDW SE-506AB   Adapter: 2  ID: 0

Режим чтения                 : Достоверность
Использование точного потока : Да
Отключение кэша аудио        : Да
Использование указателей C2  : Нет

Коррекция смещения при чтении                     : 6
Способность читать области Lead-in и Lead-out     : Нет
Заполнение пропущенных сэмплов тишиной            : Да
Удаление блоков с тишиной в начале и конце        : Нет
При вычислениях CRC использовались нулевые сэмплы : Да
Интерфейс                                         : Встроенный Win32-интерфейс для Win NT/2000
Обработка зазоров                                 : Добавлено к предыдущему треку

Выходной формат : Внутренние WAV-операции
Формат сэмплов  : 44.100 Гц; 16 бит; стерео

TOC извлечённого CD

     Трек |   Старт  | Длительность | Начальный сектор | Конечный сектор
    ---------------------------------------------------------------------
       1  |  0:00.00 |    5:53.17   |           0      |      26491     
       2  |  5:53.17 |    5:33.37   |       26492      |      51503     
       3  | 11:26.54 |    7:45.30   |       51504      |      86408     
       4  | 19:12.09 |    6:17.54   |       86409      |     114737     
       5  | 25:29.63 |    6:41.56   |      114738      |     144868     
       6  | 32:11.44 |    8:27.19   |      144869      |     182912     
       7  | 40:38.63 |    6:58.51   |      182913      |     214313     
       8  | 47:37.39 |    7:59.70   |      214314      |     250308     
       9  | 55:37.34 |    5:32.17   |      250309      |     275225     
      10  | 61:09.51 |    7:29.29   |      275226      |     308929     
      11  | 68:39.05 |    5:12.43   |      308930      |     332372     

Трек  1

     Имя файла C:\2\[Flac] (various) House Line 2\CD - 02\01 Трек01.wav

     Длина предзазора  0:00:02.00

     Пиковый уровень 99.9 %
     Скорость извлечения 1.8 X
     Качество трека 99.9 %
     CRC теста 1408A78B
     CRC копии 1408A78B
     Трек не обнаружен в базе AccurateRip
     Копирование... OK

Трек  2

     Имя файла C:\2\[Flac] (various) House Line 2\CD - 02\02 Трек02.wav

     Длина предзазора  0:00:02.00

     Пиковый уровень 100.0 %
     Скорость извлечения 1.5 X
     Качество трека 100.0 %
     CRC теста C75B0D29
     CRC копии C75B0D29
     Трек не обнаружен в базе AccurateRip
     Копирование... OK

Трек  3

     Имя файла C:\2\[Flac] (various) House Line 2\CD - 02\03 Трек03.wav

     Длина предзазора  0:00:02.00

     Пиковый уровень 100.0 %
     Скорость извлечения 3.4 X
     Качество трека 100.0 %
     CRC теста 6DF7A168
     CRC копии 6DF7A168
     Трек не обнаружен в базе AccurateRip
     Копирование... OK

Трек  4

     Имя файла C:\2\[Flac] (various) House Line 2\CD - 02\04 Трек04.wav

     Длина предзазора  0:00:02.00

     Пиковый уровень 100.0 %
     Скорость извлечения 2.9 X
     Качество трека 100.0 %
     CRC теста 076459C2
     CRC копии 076459C2
     Трек не обнаружен в базе AccurateRip
     Копирование... OK

Трек  5

     Имя файла C:\2\[Flac] (various) House Line 2\CD - 02\05 Трек05.wav

     Длина предзазора  0:00:02.00

     Пиковый уровень 100.0 %
     Скорость извлечения 2.1 X
     Качество трека 100.0 %
     CRC теста 90E25B06
     CRC копии 90E25B06
     Трек не обнаружен в базе AccurateRip
     Копирование... OK

Трек  6

     Имя файла C:\2\[Flac] (various) House Line 2\CD - 02\06 Трек06.wav

     Длина предзазора  0:00:02.00

     Пиковый уровень 100.0 %
     Скорость извлечения 3.6 X
     Качество трека 99.9 %
     CRC теста 7B025ABD
     CRC копии 7B025ABD
     Трек не обнаружен в базе AccurateRip
     Копирование... OK

Трек  7

     Имя файла C:\2\[Flac] (various) House Line 2\CD - 02\07 Трек07.wav

     Длина предзазора  0:00:02.00

     Пиковый уровень 99.9 %
     Скорость извлечения 3.3 X
     Качество трека 99.9 %
     CRC теста 5A866023
     CRC копии 5A866023
     Трек не обнаружен в базе AccurateRip
     Копирование... OK

Трек  8

     Имя файла C:\2\[Flac] (various) House Line 2\CD - 02\08 Трек08.wav

     Длина предзазора  0:00:02.00

     Пиковый уровень 100.0 %
     Скорость извлечения 5.0 X
     Качество трека 100.0 %
     CRC теста 72BD76D9
     CRC копии 72BD76D9
     Трек не обнаружен в базе AccurateRip
     Копирование... OK

Трек  9

     Имя файла C:\2\[Flac] (various) House Line 2\CD - 02\09 Трек09.wav

     Длина предзазора  0:00:02.00

     Пиковый уровень 99.7 %
     Скорость извлечения 5.1 X
     Качество трека 100.0 %
     CRC теста 1D551909
     CRC копии 1D551909
     Трек не обнаружен в базе AccurateRip
     Копирование... OK

Трек 10

     Имя файла C:\2\[Flac] (various) House Line 2\CD - 02\10 Трек10.wav

     Длина предзазора  0:00:02.00

     Пиковый уровень 100.0 %
     Скорость извлечения 4.0 X
     Качество трека 99.9 %
     CRC теста 39803B9B
     CRC копии 39803B9B
     Трек не обнаружен в базе AccurateRip
     Копирование... OK

Трек 11

     Имя файла C:\2\[Flac] (various) House Line 2\CD - 02\11 Трек11.wav

     Длина предзазора  0:00:02.00

     Пиковый уровень 100.0 %
     Скорость извлечения 5.4 X
     Качество трека 100.0 %
     CRC теста F9D04B98
     CRC копии F9D04B98
     Трек не обнаружен в базе AccurateRip
     Копирование... OK

Ни одного трека нет в базе AccurateRip

Ошибок не произошло

Конец отчёта

---- CUETools DB Plugin V2.1.3

[CTDB TOCID: wwn9VgzrB1ww0GCRAj.unc0lsvI-] database access error: Невозможно разрешить удаленное имя: 'db.cuetools.net'

==== Контрольная сумма отчёта 89BE43B0C9F1BD2C60B8F8833B2F0B7B9ED11ACAA203FEA76D6DBA8E099E9A57 ====

Страница 1 из 1

new_topic  reply_topic

Текущее время: 06-Май 19:03
Часовой пояс: GMT + 4

m Сделано с любовью PR-CY.ru Каталог webplus.info