Вход на сайт

Имя:
Пароль:

· Забыли пароль?
logo
Портал Форум
Регистрация Вход


new_topic  reply_topic

  (House) Various ‎– Club Bombers vol.1 1997, WAV (tracks + .cue), lossless

pic
Год выпуска: 1997
Страна: Germany
Производитель: ZYX Music ‎
Жанр: House
Номер #: ZYX 30010-2
Тип издания: сборник
Аудио кодек: WAV
Тип рипа: (tracks + .cue)
Битрейт аудио: lossless

Треклист:

1) Armand Van Helden – The Funk Phenomena
2) Sash! – Encore Une Fois (Future Breeze Mix)
3) Greenfield – No Silence (Klubbheads Remix)
4) Jane Proove – Let Da Love Shine (Extended Club Mix)
5) Gravity Zone – Dance To The Beat (Original Version)
6) Disco Blu – Disco Blu (Original extended mix)
7) Love Boutique (2) – Disco Frisco (Back To Studio 54)
8) Carayca – Come On (Come On Mix)


Доп. информация:
_______________________________________________
http://www.discogs.com/Various-Club-Bombers/release/359295

Код:

Exact Audio Copy V1.0 beta 3 from 29. August 2011

Отчёт EAC об извлечении, выполненном 17. июня 2013, 0:36
Various Artist / Club Bombers 1997

Дисковод: TSSTcorpBDDVDW SE-506AB   Adapter: 2  ID: 0

Режим чтения                 : Достоверность
Использование точного потока : Да
Отключение кэша аудио        : Да
Использование указателей C2  : Нет

Коррекция смещения при чтении                     : 6
Способность читать области Lead-in и Lead-out     : Нет
Заполнение пропущенных сэмплов тишиной            : Да
Удаление блоков с тишиной в начале и конце        : Нет
При вычислениях CRC использовались нулевые сэмплы : Да
Интерфейс                                         : Встроенный Win32-интерфейс для Win NT/2000
Обработка зазоров                                 : Добавлено к предыдущему треку

Выходной формат : Внутренние WAV-операции
Формат сэмплов  : 44.100 Гц; 16 бит; стерео

TOC извлечённого CD

     Трек |   Старт  | Длительность | Начальный сектор | Конечный сектор
    ---------------------------------------------------------------------
       1  |  0:00.00 |    6:58.65   |           0      |      31414     
       2  |  6:58.65 |    6:29.30   |       31415      |      60619     
       3  | 13:28.20 |    6:16.37   |       60620      |      88856     
       4  | 19:44.57 |    9:41.13   |       88857      |     132444     
       5  | 29:25.70 |    6:38.24   |      132445      |     162318     
       6  | 36:04.19 |    5:31.07   |      162319      |     187150     
       7  | 41:35.26 |    8:14.01   |      187151      |     224201     
       8  | 49:49.27 |    6:13.69   |      224202      |     252245     

Трек  1

     Имя файла C:\2\[Flac] Club Bombers (various) 1997\01 Трек01.wav

     Длина предзазора  0:00:02.00

     Пиковый уровень 94.9 %
     Скорость извлечения 2.0 X
     Качество трека 100.0 %
     CRC теста FE4309B1
     CRC копии FE4309B1
     Трек не обнаружен в базе AccurateRip
     Копирование... OK

Трек  2

     Имя файла C:\2\[Flac] Club Bombers (various) 1997\02 Трек02.wav

     Длина предзазора  0:00:01.73

     Пиковый уровень 94.9 %
     Скорость извлечения 2.0 X
     Качество трека 99.9 %
     CRC теста C1E91B41
     CRC копии C1E91B41
     Трек не обнаружен в базе AccurateRip
     Копирование... OK

Трек  3

     Имя файла C:\2\[Flac] Club Bombers (various) 1997\03 Трек03.wav

     Длина предзазора  0:00:01.73

     Пиковый уровень 94.9 %
     Скорость извлечения 1.6 X
     Качество трека 99.9 %
     CRC теста D8E21A25
     CRC копии D8E21A25
     Трек не обнаружен в базе AccurateRip
     Копирование... OK

Трек  4

     Имя файла C:\2\[Flac] Club Bombers (various) 1997\04 Трек04.wav

     Длина предзазора  0:00:01.73

     Пиковый уровень 94.9 %
     Скорость извлечения 3.7 X
     Качество трека 100.0 %
     CRC теста 040B4319
     CRC копии 040B4319
     Трек не обнаружен в базе AccurateRip
     Копирование... OK

Трек  5

     Имя файла C:\2\[Flac] Club Bombers (various) 1997\05 Трек05.wav

     Длина предзазора  0:00:01.73

     Пиковый уровень 94.9 %
     Скорость извлечения 1.9 X
     Качество трека 99.9 %
     CRC теста 9B145F66
     CRC копии 9B145F66
     Трек не обнаружен в базе AccurateRip
     Копирование... OK

Трек  6

     Имя файла C:\2\[Flac] Club Bombers (various) 1997\06 Трек06.wav

     Длина предзазора  0:00:01.73

     Пиковый уровень 94.9 %
     Скорость извлечения 0.3 X
     Качество трека 100.0 %
     CRC теста 8995B415
     CRC копии 8995B415
     Трек не обнаружен в базе AccurateRip
     Копирование... OK

Трек  7

     Имя файла C:\2\[Flac] Club Bombers (various) 1997\07 Трек07.wav

     Длина предзазора  0:00:01.73

     Пиковый уровень 94.9 %
     Скорость извлечения 3.3 X
     Качество трека 99.9 %
     CRC теста FBD87193
     CRC копии FBD87193
     Трек не обнаружен в базе AccurateRip
     Копирование... OK

Трек  8

     Имя файла C:\2\[Flac] Club Bombers (various) 1997\08 Трек08.wav

     Длина предзазора  0:00:01.73

     Пиковый уровень 94.9 %
     Скорость извлечения 4.7 X
     Качество трека 100.0 %
     CRC теста 615DEA4C
     CRC копии 615DEA4C
     Трек не обнаружен в базе AccurateRip
     Копирование... OK

Ни одного трека нет в базе AccurateRip

Ошибок не произошло

Конец отчёта

---- CUETools DB Plugin V2.1.3

[CTDB TOCID: z3M_AHskALWYxkGSxus1zCeIk1A-] database access error: Невозможно разрешить удаленное имя: 'db.cuetools.net'

==== Контрольная сумма отчёта DE916ECD3D448CB648717B45D5FC0491712088899C8C9FEAC809E5B56EBAD569 ====

Страница 1 из 1

new_topic  reply_topic

Текущее время: 06-Май 18:49
Часовой пояс: GMT + 4

m Сделано с любовью PR-CY.ru Каталог webplus.info