Вход на сайт

Имя:
Пароль:

· Забыли пароль?
logo
Портал Форум
Регистрация Вход


new_topic  reply_topic

  (House, Trance) Various Artists - Trance Universe Vol. 3 2006, APE (image + .cue), lossless

pic
Год выпуска: 2006
Производитель: Germany
Жанр: House, Trance
Номер #: 8910655 ( Universal, More Musik )
Продолжительность: CD 1 75:45 CD 2 76:52

Тип издания: сборник
Аудио кодек: APE
Тип рипа: (image + .cue)
Битрейт аудио: lossless

Треклист:

CD 1
01. BeatFreakz - Somebody's Watching Me ( Hi-Tack Radio Edit )
02. Blank & Jones - Catch ( Radio Mix )
03. Klubbdriver - Quadrophonia ( Klubbheads' Electrovate Mix )
04. SveN-R-G Vs. Bass-T - Flying High ( Short Mix )
05. Max Deejay Vs. DJ Miko - What's Up ( Groove Coverage Radio Mix )
06. DJ Cyrus* - Don't Break My Heart ( M.Y.C. Radio Mix)
07. Teenagerz - Slam Down ( Radio Mix )
08. Bangboy Vs. Hansebanger - Kiezstyle ( Disco Radio Mix )
09. The Real Booty Babes - It's A Fine Day ( Radio Edit )
10. Mandaryna - You Give Love A Bad Name ( IC3M4N Remix Extended )
11. Resource - More Than A Feeling ( Radio Mix )
12. Cuba Club - Cuba ( Original Radio Mix )
13. Lazard - Living On Video ( Alex M. Remix )
14. Freddy Fader - Besoin De Toi ( Single Edit )
15. Tunebazz* - Party With You ( Radio Edit )
16. Commercial Club Crew - Diggers Song ( 2 Jay's Radio )
17. Alex M. - So Free ( Radio Mix )
18. Greatest Deejay - Cut The Music ( Club Cut )
19. Brisby & Jingles - Here We Go ( Radio Edit )
20. Arcadipane* Vs. Balloon* - Go West ( Special D Rmx Edit )

CD 2
01. DJ Sakin & Friend's - For The Love Of A Princess ( Braveheart 2006 ) ( Scott Project Radio Mix )
02. Symposium - 10101 The Binary Code ( Radio Mix )
03. DJ Jean - Feel It ( Greatest Deejay Remix )
04. Megara Vs. DJ Lee – For A Moment ( Radio Cut )
05. Bonito* & Louis - Rush ( Megara Vs. DJ Lee Edit )
06. Issue Feat. Lynn - Take My Hand ( Radio Edit )
07. Azuria - Forgive Me ( C7 Meets Ozi Radio Edit )
08. Deep.Spirit - The One That I Wan't ( C7 Meets Ozi Radio Edit )
09. Mike Wind Vs. Marc Korn - On My Way ( Rocco Vs. Bass-T Cut )
10. Bermuda Loverz* - My Girl ( La Di Da Da ! ) ( DJ Sledge Hammer Cut )
11. Bulldozzer – BBoy MC ( Radio Mix )
12. Alex Megane - I Think Of You ( Radio Mix )
13. Novamode - I Wan't You'r Love ( Radio Mix )
14. Tonic & Serenity - Element's Of Trance ( Bangbros Cut )
15. The Hitmen - Energy Of You ( Vocal Radio Edit )
16. Sample Rippers - Miracle Maker ( Radio Mix )
17. Yves Deruyter - Calling Earth 2006 ( Radio Mix )
18. Grooveyard - Mary Go W!ld ! ( Laidback Luke Radio Mix )
19. D. Mand Pres. Miss T-Tiger - My Way To Rock ( Radio Mix )
20. Limahl - Tell Me Why ( Bass Bumpers Remix )

Код:

Exact Audio Copy V0.99 prebeta 5 from 4. May 2009

Отчёт EAC об извлечении, выполненном 4. июня 2013, 21:31

Various  Artists / Trance  Universe  Vol. 3   CD 1  ( 8910655 )

Дисковод: Optiarc DVD RW AD-7263S   Adapter: 5  ID: 0

Режим чтения                 : Достоверность
Использование точного потока : Да
Отключение кэша аудио        : Да
Использование указателей C2  : Нет

Коррекция смещения при чтении                     : 48
Способность читать области Lead-in и Lead-out     : Нет
Заполнение пропущенных сэмплов тишиной            : Да
Удаление блоков с тишиной в начале и конце        : Нет
При вычислениях CRC использовались нулевые сэмплы : Да
Интерфейс                                         : Встроенный Win32-интерфейс для Win NT/2000

Выходной формат          : Monkey's Audio (без потерь)
Выбранный битрейт        : Extra High Lossless Compression
Качество                 : Высокий
Добавление ID3-тэга      : Нет
Утилита сжатия           : C:\Program Files (x86)\Monkey's Audio\MAC.exe
Дополнительные параметры : -w "Artist=%a" -w "Title=%t" -w "Album=%g" -w "Year=%y" -w "Track=%n" -w "Genre=%m" -h %s %d

TOC извлечённого CD

     Трек |   Старт  | Длительность | Начальный сектор | Конечный сектор
    ---------------------------------------------------------------------
       1  |  0:00.00 |    2:46.01   |           0      |      12450     
       2  |  2:46.01 |    3:19.31   |       12451      |      27406     
       3  |  6:05.32 |    6:35.51   |       27407      |      57082     
       4  | 12:41.08 |    3:10.00   |       57083      |      71332     
       5  | 15:51.08 |    3:20.17   |       71333      |      86349     
       6  | 19:11.25 |    3:27.57   |       86350      |     101931     
       7  | 22:39.07 |    3:35.51   |      101932      |     118107     
       8  | 26:14.58 |    4:31.65   |      118108      |     138497     
       9  | 30:46.48 |    2:48.60   |      138498      |     151157     
      10  | 33:35.33 |    6:34.05   |      151158      |     180712     
      11  | 40:09.38 |    3:08.53   |      180713      |     194865     
      12  | 43:18.16 |    3:32.70   |      194866      |     210835     
      13  | 46:51.11 |    5:14.33   |      210836      |     234418     
      14  | 52:05.44 |    3:45.67   |      234419      |     251360     
      15  | 55:51.36 |    3:17.48   |      251361      |     266183     
      16  | 59:09.09 |    3:40.47   |      266184      |     282730     
      17  | 62:49.56 |    3:30.27   |      282731      |     298507     
      18  | 66:20.08 |    3:04.59   |      298508      |     312366     
      19  | 69:24.67 |    3:17.00   |      312367      |     327141     
      20  | 72:41.67 |    3:03.47   |      327142      |     340913     

Характеристики диапазона извлечения и сообщения об ошибках

Выбранный диапазон

     Имя файла D:\Bit Torrent\Various  Artists - Trance  Universe\Various  Artists - Trance  Universe  Vol. 3   CD 1\Various  Artists - Trance  Universe  Vol. 3   CD 1.wav

     Пиковый уровень 99.7 %
     Качество диапазона 100.0 %
     CRC теста BFAD47C6
     CRC копии BFAD47C6
     Копирование... OK

Ошибок не произошло

 
AccurateRip: сводка
 
Трек  1  нет в базе данных
Трек  2  нет в базе данных
Трек  3  нет в базе данных
Трек  4  нет в базе данных
Трек  5  нет в базе данных
Трек  6  нет в базе данных
Трек  7  нет в базе данных
Трек  8  нет в базе данных
Трек  9  нет в базе данных
Трек 10  нет в базе данных
Трек 11  нет в базе данных
Трек 12  нет в базе данных
Трек 13  нет в базе данных
Трек 14  нет в базе данных
Трек 15  нет в базе данных
Трек 16  нет в базе данных
Трек 17  нет в базе данных
Трек 18  нет в базе данных
Трек 19  нет в базе данных
Трек 20  нет в базе данных
 
Ни одного трека нет в базе AccurateRip

Конец отчёта

Код:

Exact Audio Copy V0.99 prebeta 5 from 4. May 2009

Отчёт EAC об извлечении, выполненном 4. июня 2013, 20:45

Various  Artists / Trance  Universe  Vol. 3  CD 2  ( 8910655 )

Дисковод: Optiarc DVD RW AD-7263S   Adapter: 5  ID: 0

Режим чтения                 : Достоверность
Использование точного потока : Да
Отключение кэша аудио        : Да
Использование указателей C2  : Нет

Коррекция смещения при чтении                     : 48
Способность читать области Lead-in и Lead-out     : Нет
Заполнение пропущенных сэмплов тишиной            : Да
Удаление блоков с тишиной в начале и конце        : Нет
При вычислениях CRC использовались нулевые сэмплы : Да
Интерфейс                                         : Встроенный Win32-интерфейс для Win NT/2000

Выходной формат          : Monkey's Audio (без потерь)
Выбранный битрейт        : Extra High Lossless Compression
Качество                 : Высокий
Добавление ID3-тэга      : Нет
Утилита сжатия           : C:\Program Files (x86)\Monkey's Audio\MAC.exe
Дополнительные параметры : -w "Artist=%a" -w "Title=%t" -w "Album=%g" -w "Year=%y" -w "Track=%n" -w "Genre=%m" -h %s %d

TOC извлечённого CD

     Трек |   Старт  | Длительность | Начальный сектор | Конечный сектор
    ---------------------------------------------------------------------
       1  |  0:00.00 |    2:55.72   |           0      |      13196     
       2  |  2:55.72 |    3:33.53   |       13197      |      29224     
       3  |  6:29.50 |    5:33.72   |       29225      |      54271     
       4  | 12:03.47 |    3:18.43   |       54272      |      69164     
       5  | 15:22.15 |    3:24.61   |       69165      |      84525     
       6  | 18:47.01 |    3:02.71   |       84526      |      98246     
       7  | 21:49.72 |    3:05.16   |       98247      |     112137     
       8  | 24:55.13 |    3:31.68   |      112138      |     128030     
       9  | 28:27.06 |    3:37.50   |      128031      |     144355     
      10  | 32:04.56 |    3:36.03   |      144356      |     160558     
      11  | 35:40.59 |    3:15.20   |      160559      |     175203     
      12  | 38:56.04 |    3:36.25   |      175204      |     191428     
      13  | 42:32.29 |    3:28.04   |      191429      |     207032     
      14  | 46:00.33 |    3:51.20   |      207033      |     224377     
      15  | 49:51.53 |    3:55.72   |      224378      |     242074     
      16  | 53:47.50 |    3:06.58   |      242075      |     256082     
      17  | 56:54.33 |    5:07.34   |      256083      |     279141     
      18  | 62:01.67 |    4:24.39   |      279142      |     298980     
      19  | 66:26.31 |    3:46.26   |      298981      |     315956     
      20  | 70:12.57 |    6:39.65   |      315957      |     345946     

Характеристики диапазона извлечения и сообщения об ошибках

Выбранный диапазон

     Имя файла D:\Bit Torrent\Various  Artists - Trance  Universe\Various  Artists - Trance  Universe  Vol. 3  CD 2\Various  Artists - Trance  Universe  Vol. 3  CD 2.wav

     Пиковый уровень 99.7 %
     Качество диапазона 100.0 %
     CRC теста 719716C2
     CRC копии 719716C2
     Копирование... OK

Ошибок не произошло

 
AccurateRip: сводка
 
Трек  1  нет в базе данных
Трек  2  нет в базе данных
Трек  3  нет в базе данных
Трек  4  нет в базе данных
Трек  5  нет в базе данных
Трек  6  нет в базе данных
Трек  7  нет в базе данных
Трек  8  нет в базе данных
Трек  9  нет в базе данных
Трек 10  нет в базе данных
Трек 11  нет в базе данных
Трек 12  нет в базе данных
Трек 13  нет в базе данных
Трек 14  нет в базе данных
Трек 15  нет в базе данных
Трек 16  нет в базе данных
Трек 17  нет в базе данных
Трек 18  нет в базе данных
Трек 19  нет в базе данных
Трек 20  нет в базе данных
 
Ни одного трека нет в базе AccurateRip

Конец отчёта
Спасибо за хороший альбом!

Страница 1 из 1

new_topic  reply_topic

Текущее время: 06-Май 19:42
Часовой пояс: GMT + 4

m Сделано с любовью PR-CY.ru Каталог webplus.info