Вход на сайт

Имя:
Пароль:

· Забыли пароль?
logo
Портал Форум
Регистрация Вход


new_topic  reply_topic

  (House, Trance) Various Artists - Fantasy Dance Hits Vol. 5 2005, APE (image + .cue), lossless

pic
Год выпуска: 2005
Производитель: Germany
Жанр: House, Trance
Номер #: YAWA 05.17-6 ( YAWA Recordings )
Продолжительность: CD 1 69:41 CD 2 70:52

Тип издания: сборник
Аудио кодек: APE
Тип рипа: (image + .cue)
Битрейт аудио: lossless

Треклист:

CD 1
01. DJ Picco* - Intro 2005 / 2
02. Rave Allstars Vs. Object One - Ping Pong 2006 ( Radio Edit )
03. Tune Up ! - Feel Fine ( Short Mix )
04. Brooklyn Bounce - Sex, Bass & Rock' N' Roll ( Bangbros Single Edit )
05. Klubbingman - Love Message ( Tune Up ! Vs. DJ Manian Radio Edit )
06. Jan Wayne - Time To Fly ( Radio Edit )
07. DJ Kicken - Talk About Sex ( Radio Edit )
08. Picco - Wicked ! ( Radio Edit )
09. Pulsedriver - Find My Time
10. Andy Lopez - Noche Del Amor ( Tune Up ! Radio Edit )
11. Ray Knox - Fiesta ( Jens O. Remix Edit )
12. SveN-R-G Vs. Bass-T - Feel Fine
13. Central Seven - Neverland ( Radio Edit )
14. Ceoma - Love Is More ( Rob Mayth Remix Cut )
15. Groovestylerz - We Are Family 2006 ( Radio Version )
16. Rasmus Faber - Get Over Here ( Axwell Radio Edit )
17. Danielle Paris - I Can' t Stand It ( Cascada Edit )
18. VDK* - Drop That Beat ( Radio Edit )
19. Lance Inc. - One More Try ( Rob Mayth Remix Edit )
20. Pain* & K-Laurent* - This Way ( Radio Edit )
21. East West Rockers* - Never Stop

CD 2
01. Cascada - How Do You Do ( Rob Mayth Short Edit )
02. DJ Bomba - Crazy Pipe ( Radio Mix )
03. Jens O. - One More ( Radio Edit )
04. Knightclub - Ab Geht's ( Radio Edit )
05. Da Franco - Show Me ( Radio Edit )
06. Franky B. - Mr. Lonely ( Bangbros Single Edit )
07. Felix Project - On The Floor ( Radio Edit )
08. Peter Damir & Charlie (B)rown* - Bomba ( Radio Edit )
09. Issue - Everytime (Sam G. Remix Edit)
10. Bangbros.* – Banging In Dreamworld ( Rave Allstars Single Edit )
11. Keira Green - My Heart Goes Up ( Picco Remix Edit )
12. C-Bool - House Baby ( Verano Remix Edit )
13. M.Y.C. - Moon Patrol ( Radio Edit )
14. Conways Feat. Nick Straker Band, The* - A Walk In The Park ( Rewalked ) ( Radio Version )
15. Andrew Spencer ft. Pit Bailay - I' m Always Here ( Original House Edit )
16. Mr. Mibay - Rock Da House ( Freddy Fader Remix Edit )
17. The Drill - The Drill ( Radio Edit )
18. Saven David Junior* - Fuego ( Ben Delay Remix Cut )
19. Ernesto vs. Bastian - Dark Side Of The Moon ( DJ Shog Remix Edit )
20. DJ Lee - Fight Hard ( Radio Edit )
21. Lacuna - Celebrate The Summer ( The Real Booty Babes Remix Edit )

Доп. информация: CD 1 1, 2, 3, 5, 7, 13, 14, 15, 18, 20 MP3 CD 2 4, 7, 8, 14, 16, 17 MP3

Код:

Exact Audio Copy V0.99 prebeta 5 from 4. May 2009

Отчёт EAC об извлечении, выполненном 5. июня 2013, 11:10

Various  Artists / Fantasy  Dance  Hits  Vol. 5  CD 1

Дисковод: Optiarc DVD RW AD-7263S   Adapter: 5  ID: 0

Режим чтения                 : Достоверность
Использование точного потока : Да
Отключение кэша аудио        : Да
Использование указателей C2  : Нет

Коррекция смещения при чтении                     : 48
Способность читать области Lead-in и Lead-out     : Нет
Заполнение пропущенных сэмплов тишиной            : Да
Удаление блоков с тишиной в начале и конце        : Нет
При вычислениях CRC использовались нулевые сэмплы : Да
Интерфейс                                         : Встроенный Win32-интерфейс для Win NT/2000

Выходной формат          : Monkey's Audio (без потерь)
Выбранный битрейт        : Extra High Lossless Compression
Качество                 : Высокий
Добавление ID3-тэга      : Нет
Утилита сжатия           : C:\Program Files (x86)\Monkey's Audio\MAC.exe
Дополнительные параметры : -w "Artist=%a" -w "Title=%t" -w "Album=%g" -w "Year=%y" -w "Track=%n" -w "Genre=%m" -h %s %d

TOC извлечённого CD

     Трек |   Старт  | Длительность | Начальный сектор | Конечный сектор
    ---------------------------------------------------------------------
       1  |  0:00.00 |    1:57.53   |           0      |       8827     
       2  |  1:57.53 |    3:32.06   |        8828      |      24733     
       3  |  5:29.59 |    3:13.26   |       24734      |      39234     
       4  |  8:43.10 |    3:42.50   |       39235      |      55934     
       5  | 12:25.60 |    3:26.66   |       55935      |      71450     
       6  | 15:52.51 |    3:35.59   |       71451      |      87634     
       7  | 19:28.35 |    3:02.69   |       87635      |     101353     
       8  | 22:31.29 |    2:48.52   |      101354      |     114005     
       9  | 25:20.06 |    3:43.50   |      114006      |     130780     
      10  | 29:03.56 |    3:16.25   |      130781      |     145505     
      11  | 32:20.06 |    2:52.71   |      145506      |     158476     
      12  | 35:13.02 |    3:09.10   |      158477      |     172661     
      13  | 38:22.12 |    3:09.06   |      172662      |     186842     
      14  | 41:31.18 |    4:05.42   |      186843      |     205259     
      15  | 45:36.60 |    3:06.63   |      205260      |     219272     
      16  | 48:43.48 |    3:39.34   |      219273      |     235731     
      17  | 52:23.07 |    3:16.67   |      235732      |     250498     
      18  | 55:39.74 |    3:30.52   |      250499      |     266300     
      19  | 59:10.51 |    3:30.52   |      266301      |     282102     
      20  | 62:41.28 |    3:50.58   |      282103      |     299410     
      21  | 66:32.11 |    3:09.54   |      299411      |     313639     

Характеристики диапазона извлечения и сообщения об ошибках

Выбранный диапазон

     Имя файла D:\Bit Torrent\Various  Artists - Fantasy  Dance  Hits  Vol. 5\Various  Artists - Fantasy  Dance  Hits  Vol. 5  CD 1\Various  Artists - Fantasy  Dance  Hits  Vol. 5  CD 1.wav

     Пиковый уровень 98.8 %
     Качество диапазона 100.0 %
     CRC теста 6BC44908
     CRC копии 6BC44908
     Копирование... OK

Ошибок не произошло

 
AccurateRip: сводка
 
Трек  1  нет в базе данных
Трек  2  нет в базе данных
Трек  3  нет в базе данных
Трек  4  нет в базе данных
Трек  5  нет в базе данных
Трек  6  нет в базе данных
Трек  7  нет в базе данных
Трек  8  нет в базе данных
Трек  9  нет в базе данных
Трек 10  нет в базе данных
Трек 11  нет в базе данных
Трек 12  нет в базе данных
Трек 13  нет в базе данных
Трек 14  нет в базе данных
Трек 15  нет в базе данных
Трек 16  нет в базе данных
Трек 17  нет в базе данных
Трек 18  нет в базе данных
Трек 19  нет в базе данных
Трек 20  нет в базе данных
Трек 21  нет в базе данных
 
Ни одного трека нет в базе AccurateRip

Конец отчёта

Код:

Exact Audio Copy V0.99 prebeta 5 from 4. May 2009

Отчёт EAC об извлечении, выполненном 5. июня 2013, 12:01

Various  Artists / Fantasy  Dance  Hits  Vol. 5  CD 2

Дисковод: Optiarc DVD RW AD-7263S   Adapter: 5  ID: 0

Режим чтения                 : Достоверность
Использование точного потока : Да
Отключение кэша аудио        : Да
Использование указателей C2  : Нет

Коррекция смещения при чтении                     : 48
Способность читать области Lead-in и Lead-out     : Нет
Заполнение пропущенных сэмплов тишиной            : Да
Удаление блоков с тишиной в начале и конце        : Нет
При вычислениях CRC использовались нулевые сэмплы : Да
Интерфейс                                         : Встроенный Win32-интерфейс для Win NT/2000

Выходной формат          : Monkey's Audio (без потерь)
Выбранный битрейт        : Extra High Lossless Compression
Качество                 : Высокий
Добавление ID3-тэга      : Нет
Утилита сжатия           : C:\Program Files (x86)\Monkey's Audio\MAC.exe
Дополнительные параметры : -w "Artist=%a" -w "Title=%t" -w "Album=%g" -w "Year=%y" -w "Track=%n" -w "Genre=%m" -h %s %d

TOC извлечённого CD

     Трек |   Старт  | Длительность | Начальный сектор | Конечный сектор
    ---------------------------------------------------------------------
       1  |  0:00.00 |    3:57.32   |           0      |      17806     
       2  |  3:57.32 |    3:14.56   |       17807      |      32412     
       3  |  7:12.13 |    3:05.46   |       32413      |      46333     
       4  | 10:17.59 |    3:14.22   |       46334      |      60905     
       5  | 13:32.06 |    3:07.48   |       60906      |      74978     
       6  | 16:39.54 |    3:55.45   |       74979      |      92648     
       7  | 20:35.24 |    2:53.43   |       92649      |     105666     
       8  | 23:28.67 |    3:21.26   |      105667      |     120767     
       9  | 26:50.18 |    3:04.70   |      120768      |     134637     
      10  | 29:55.13 |    2:56.52   |      134638      |     147889     
      11  | 32:51.65 |    3:42.43   |      147890      |     164582     
      12  | 36:34.33 |    3:33.35   |      164583      |     180592     
      13  | 40:07.68 |    2:53.38   |      180593      |     193605     
      14  | 43:01.31 |    3:55.33   |      193606      |     211263     
      15  | 46:56.64 |    3:55.28   |      211264      |     228916     
      16  | 50:52.17 |    3:18.09   |      228917      |     243775     
      17  | 54:10.26 |    2:59.45   |      243776      |     257245     
      18  | 57:09.71 |    3:06.36   |      257246      |     271231     
      19  | 60:16.32 |    3:46.58   |      271232      |     288239     
      20  | 64:03.15 |    3:51.39   |      288240      |     305603     
      21  | 67:54.54 |    2:57.39   |      305604      |     318917     

Характеристики диапазона извлечения и сообщения об ошибках

Выбранный диапазон

     Имя файла D:\Bit Torrent\Various  Artists - Fantasy  Dance  Hits  Vol. 5\Various  Artists - Fantasy  Dance  Hits  Vol. 5  CD 2\Various  Artists - Fantasy  Dance  Hits  Vol. 5  CD 2.wav

     Пиковый уровень 98.8 %
     Качество диапазона 100.0 %
     CRC теста 3ACA081F
     CRC копии 3ACA081F
     Копирование... OK

Ошибок не произошло

 
AccurateRip: сводка
 
Трек  1  нет в базе данных
Трек  2  нет в базе данных
Трек  3  нет в базе данных
Трек  4  нет в базе данных
Трек  5  нет в базе данных
Трек  6  нет в базе данных
Трек  7  нет в базе данных
Трек  8  нет в базе данных
Трек  9  нет в базе данных
Трек 10  нет в базе данных
Трек 11  нет в базе данных
Трек 12  нет в базе данных
Трек 13  нет в базе данных
Трек 14  нет в базе данных
Трек 15  нет в базе данных
Трек 16  нет в базе данных
Трек 17  нет в базе данных
Трек 18  нет в базе данных
Трек 19  нет в базе данных
Трек 20  нет в базе данных
Трек 21  нет в базе данных
 
Ни одного трека нет в базе AccurateRip

Конец отчёта
Спектр можно посмотреть? Ты чем проверял диски?
dimka007
Спектры сделал не ко всем трекам. Вот спектр первого
pic
И где там срезы?
dimka007
на 16 есть. Я написал чтоб лишний раз люди которые будут интересоваться этой сборкой не дёргали меня. Тау выдал такое, он тоже ошибается и часто. Так что просто констатировал как факт

Страница 1 из 1

new_topic  reply_topic

Текущее время: 06-Май 19:07
Часовой пояс: GMT + 4

m Сделано с любовью PR-CY.ru Каталог webplus.info