Вход на сайт

Имя:
Пароль:

· Забыли пароль?
logo
Портал Форум
Регистрация Вход


new_topic  reply_topic

  (House, Hi NRG) Various Artists - Bollwerk Phase 10 2008, APE (image + .cue), lossless

pic
Год выпуска: 2008
Производитель: Europe
Жанр: House, Hi NRG
Номер #: 530987 4 ( Universal Music Austria )
Продолжительность: 79:45

Тип издания: сборник
Аудио кодек: APE
Тип рипа: (image + .cue)
Битрейт аудио: lossless

Треклист:

01. Deadmaus Vs. Jelo - The Reward Is Cheese
02. David Kane - Dream World ( Krafft Radio Short Mix )
03. Ali Payami vs Aquagen & Warp Brothers - Blade ( Ali Payami Original )
04. DJ MNS Vs. DJ E-Maxx - Nostra Culpa ( DJ E-Maxx Radio Edit )
05. Max DeeJay - Army Now ( Club Mix )
06. Headhunterz - Last Of The Mohicans ( Hardbass Edit )
07. Technoboy - Rage ( Hardstyle Song )
08. R.I.O. - Shine On ( Spencer & Hill Remix )
09. Merlin Milles - Wanna Fuck ( Barnes & Heatcliff Navida Rework Radio )
10. Mr. Jay & T - Bruce Will Es
11. Sandy Vee - Bleep
12. Lazard - I Am Alive ( The Hitmen Radio Edit )
13. Chris Da House Vs. DJ Sledge Hammer - Believe ( Dream Dance Alliance Remix Edit )
14. Mark' Oh - I Don't Like Monday's ( Mark' Oh XXL Mix )
15. DJ Neo - Play ( Blutonium Boys Extended Mix )
16. Brennan Heat - Remember Remember ( Hardbass Edit )
17. John Dahlback - Hustle Up ( Albin Myers Remix )
18. Sia - The Girl You Lost To Cocaine ( Stonebridge Vocal )
19. STFU - Thriller ( STFU Remix )
20. DJ Indygo & M-Craft - Pornostar ( Original Club Mix )

Доп. информация: Не смотря на то что штрих-код указывает на Республики ЮАР, диск отпечатан в Европе. 8, 18, 19 треки МП3. Треки как бы Нон-Стоп, но почти все целые. Поставьте пожалуйста зелёным.

Код:

Exact Audio Copy V0.99 prebeta 5 from 4. May 2009

Отчёт EAC об извлечении, выполненном 4. июня 2013, 23:10

Various  Artists / Bollwerk  Phase  10

Дисковод: Optiarc DVD RW AD-7263S   Adapter: 5  ID: 0

Режим чтения                 : Достоверность
Использование точного потока : Да
Отключение кэша аудио        : Да
Использование указателей C2  : Нет

Коррекция смещения при чтении                     : 48
Способность читать области Lead-in и Lead-out     : Нет
Заполнение пропущенных сэмплов тишиной            : Да
Удаление блоков с тишиной в начале и конце        : Нет
При вычислениях CRC использовались нулевые сэмплы : Да
Интерфейс                                         : Встроенный Win32-интерфейс для Win NT/2000

Выходной формат          : Monkey's Audio (без потерь)
Выбранный битрейт        : Extra High Lossless Compression
Качество                 : Высокий
Добавление ID3-тэга      : Нет
Утилита сжатия           : C:\Program Files (x86)\Monkey's Audio\MAC.exe
Дополнительные параметры : -w "Artist=%a" -w "Title=%t" -w "Album=%g" -w "Year=%y" -w "Track=%n" -w "Genre=%m" -h %s %d

TOC извлечённого CD

     Трек |   Старт  | Длительность | Начальный сектор | Конечный сектор
    ---------------------------------------------------------------------
       1  |  0:00.00 |    4:30.74   |           0      |      20323     
       2  |  4:30.74 |    3:05.44   |       20324      |      34242     
       3  |  7:36.43 |    4:24.00   |       34243      |      54042     
       4  | 12:00.43 |    4:30.30   |       54043      |      74322     
       5  | 16:30.73 |    4:30.04   |       74323      |      94576     
       6  | 21:01.02 |    2:52.70   |       94577      |     107546     
       7  | 23:53.72 |    4:34.39   |      107547      |     128135     
       8  | 28:28.36 |    3:41.39   |      128136      |     144749     
       9  | 32:10.00 |    3:52.44   |      144750      |     162193     
      10  | 36:02.44 |    4:02.64   |      162194      |     180407     
      11  | 40:05.33 |    4:22.21   |      180408      |     200078     
      12  | 44:27.54 |    3:42.72   |      200079      |     216800     
      13  | 48:10.51 |    3:44.35   |      216801      |     233635     
      14  | 51:55.11 |    4:30.62   |      233636      |     253947     
      15  | 56:25.73 |    3:19.08   |      253948      |     268880     
      16  | 59:45.06 |    4:24.05   |      268881      |     288685     
      17  | 64:09.11 |    4:21.14   |      288686      |     308274     
      18  | 68:30.25 |    4:30.00   |      308275      |     328524     
      19  | 73:00.25 |    3:20.20   |      328525      |     343544     
      20  | 76:20.45 |    3:24.61   |      343545      |     358905     

Характеристики диапазона извлечения и сообщения об ошибках

Выбранный диапазон

     Имя файла D:\Bit Torrent\Various  Artists - Bollwerk  Phase  10\Various  Artists - Bollwerk  Phase  10.wav

     Пиковый уровень 100.0 %
     Качество диапазона 100.0 %
     CRC теста 36213FBD
     CRC копии 36213FBD
     Копирование... OK

Ошибок не произошло

 
AccurateRip: сводка
 
Трек  1  нет в базе данных
Трек  2  нет в базе данных
Трек  3  нет в базе данных
Трек  4  нет в базе данных
Трек  5  нет в базе данных
Трек  6  нет в базе данных
Трек  7  нет в базе данных
Трек  8  нет в базе данных
Трек  9  нет в базе данных
Трек 10  нет в базе данных
Трек 11  нет в базе данных
Трек 12  нет в базе данных
Трек 13  нет в базе данных
Трек 14  нет в базе данных
Трек 15  нет в базе данных
Трек 16  нет в базе данных
Трек 17  нет в базе данных
Трек 18  нет в базе данных
Трек 19  нет в базе данных
Трек 20  нет в базе данных
 
Ни одного трека нет в базе AccurateRip

Конец отчёта
Песня один в один, но длится поменьше. Почему такой микс не знаю, но это не обрезка. Вообще официальная длительность такой версии 3:35. Здесь 4:30 в рипе.

Страница 1 из 1

new_topic  reply_topic

Текущее время: 06-Май 19:58
Часовой пояс: GMT + 4

m Сделано с любовью PR-CY.ru Каталог webplus.info