Вход на сайт

Имя:
Пароль:

· Забыли пароль?
logo
Портал Форум
Регистрация Вход


new_topic  reply_topic

  (Club House, Progressive House) Various ‎Artist – DJ Pool Vol. 1 Best Club Mixes & Remixes From Europe 1997, WAV (tracks + .cue), lossless

pic
Год выпуска: 1997
Страна: Germany
Производитель: House Nation
Жанр: Club House, Progressive House
Номер #: DST 085- 70300.2
Аудио кодек: WAV
Тип рипа: (tracks + .cue)
Битрейт аудио: lossless

Треклист:
1. Quench – Dreams (DJ Maverick Remix)
2. 666 – Alarma (A-Trax Club Remix)
3. Klubbheads – Discohopping (Dons La Discotec Mix)
4. DJ Phaser – Thunder In Space (Club Mix)
5. Sequential One – Dreams (Klubbheads Remix)
6. Milk Inc. – Free Your Mind (Roadrunner Mix)
7. T.O. – Diva (Bells Radio Mix)
8. DJ Fred & Arnold T – Delirium (Radio Mix)
9. Red 5 – For This World (Striking Man Remix)
10. Dj Sergio – Yabolesh (Club Mix)
11. DJ Maverick* – Hot & Wet (Short Mix)
12. Dyno – Fantasya (Hit 2 Mix)
13. After Hour – Yah K.K. (K.K. Alert Mix)
14. Interactive – Koma (Radio Mix)


Доп. информация:
_______________________________________________
http://www.discogs.com/Various-DJ-Pool-Vol1/release/1805912

Код:

Exact Audio Copy V1.0 beta 3 from 29. August 2011

Отчёт EAC об извлечении, выполненном 20. января 2013, 21:36

Various / DJ Pool Vol. 1

Дисковод: Optiarc DVD+-RW AD-7560S   Adapter: 1  ID: 0

Режим чтения                 : Достоверность
Использование точного потока : Да
Отключение кэша аудио        : Да
Использование указателей C2  : Нет

Коррекция смещения при чтении                     : 6
Способность читать области Lead-in и Lead-out     : Нет
Заполнение пропущенных сэмплов тишиной            : Да
Удаление блоков с тишиной в начале и конце        : Нет
При вычислениях CRC использовались нулевые сэмплы : Да
Интерфейс                                         : Встроенный Win32-интерфейс для Win NT/2000
Обработка зазоров                                 : Добавлено к предыдущему треку

Выходной формат : Внутренние WAV-операции
Формат сэмплов  : 44.100 Гц; 16 бит; стерео

TOC извлечённого CD

     Трек |   Старт  | Длительность | Начальный сектор | Конечный сектор
    ---------------------------------------------------------------------
       1  |  0:00.00 |    7:47.74   |           0      |      35098     
       2  |  7:47.74 |    5:19.15   |       35099      |      59038     
       3  | 13:07.14 |    6:19.16   |       59039      |      87479     
       4  | 19:26.30 |    3:36.10   |       87480      |     103689     
       5  | 23:02.40 |    5:51.22   |      103690      |     130036     
       6  | 28:53.62 |    5:16.25   |      130037      |     153761     
       7  | 34:10.12 |    3:50.05   |      153762      |     171016     
       8  | 38:00.17 |    3:27.25   |      171017      |     186566     
       9  | 41:27.42 |    6:41.29   |      186567      |     216670     
      10  | 48:08.71 |    5:16.72   |      216671      |     240442     
      11  | 53:25.68 |    3:53.48   |      240443      |     257965     
      12  | 57:19.41 |    3:34.73   |      257966      |     274088     
      13  | 60:54.39 |    5:23.58   |      274089      |     298371     
      14  | 66:18.22 |    3:38.51   |      298372      |     314772     

Трек  1

     Имя файла Z:\[HD]\- [Base House] [VA & CDM]\[Сборники]\[Flac] Va - DJ POOL Vol. 1 - 1997\01 Dreams (DJ Maverick Remix).wav

     Длина предзазора  0:00:02.00

     Пиковый уровень 98.8 %
     Скорость извлечения 3.2 X
     Качество трека 100.0 %
     CRC теста E5227500
     CRC копии E5227500
     Точность не определена (достоверность 1)  [DE7C6319], AccurateRip вернул [F8568262]  (AR v2)
     Копирование... OK

Трек  2

     Имя файла Z:\[HD]\- [Base House] [VA & CDM]\[Сборники]\[Flac] Va - DJ POOL Vol. 1 - 1997\02 Alarma (A-Trax Club Remix).wav

     Пиковый уровень 98.0 %
     Скорость извлечения 3.7 X
     Качество трека 100.0 %
     CRC теста BCAD1368
     CRC копии BCAD1368
     Точность не определена (достоверность 1)  [A86F6D6F], AccurateRip вернул [ABEDDF3B]  (AR v2)
     Копирование... OK

Трек  3

     Имя файла Z:\[HD]\- [Base House] [VA & CDM]\[Сборники]\[Flac] Va - DJ POOL Vol. 1 - 1997\03 Discohopping (Dons La Discotec Mix).wav

     Пиковый уровень 98.8 %
     Скорость извлечения 4.0 X
     Качество трека 100.0 %
     CRC теста 6D6CCF5B
     CRC копии 6D6CCF5B
     Точность не определена (достоверность 1)  [751BA078], AccurateRip вернул [81301FEB]  (AR v2)
     Копирование... OK

Трек  4

     Имя файла Z:\[HD]\- [Base House] [VA & CDM]\[Сборники]\[Flac] Va - DJ POOL Vol. 1 - 1997\04 Thunder In Space (Club Mix).wav

     Пиковый уровень 100.0 %
     Скорость извлечения 3.3 X
     Качество трека 99.9 %
     CRC теста B4E3BFA6
     CRC копии B4E3BFA6
     Точность не определена (достоверность 1)  [7E64260A], AccurateRip вернул [150BA750]  (AR v2)
     Копирование... OK

Трек  5

     Имя файла Z:\[HD]\- [Base House] [VA & CDM]\[Сборники]\[Flac] Va - DJ POOL Vol. 1 - 1997\05 Dreams (Klubbheads Remix).wav

     Пиковый уровень 98.8 %
     Скорость извлечения 4.6 X
     Качество трека 100.0 %
     CRC теста A9E09943
     CRC копии A9E09943
     Точность не определена (достоверность 1)  [38C9C2E9], AccurateRip вернул [29D45898]  (AR v2)
     Копирование... OK

Трек  6

     Имя файла Z:\[HD]\- [Base House] [VA & CDM]\[Сборники]\[Flac] Va - DJ POOL Vol. 1 - 1997\06 Free Your Mind (Roadrunner Mix).wav

     Пиковый уровень 98.8 %
     Скорость извлечения 4.8 X
     Качество трека 100.0 %
     CRC теста 57BBF87A
     CRC копии 57BBF87A
     Точность не определена (достоверность 1)  [FD691577], AccurateRip вернул [888B8D3A]  (AR v2)
     Копирование... OK

Трек  7

     Имя файла Z:\[HD]\- [Base House] [VA & CDM]\[Сборники]\[Flac] Va - DJ POOL Vol. 1 - 1997\07 Diva (Bells Radio Mix).wav

     Пиковый уровень 100.0 %
     Скорость извлечения 4.0 X
     Качество трека 99.9 %
     CRC теста 48237686
     CRC копии 48237686
     Точность не определена (достоверность 1)  [2DA35DF0], AccurateRip вернул [41191857]  (AR v2)
     Копирование... OK

Трек  8

     Имя файла Z:\[HD]\- [Base House] [VA & CDM]\[Сборники]\[Flac] Va - DJ POOL Vol. 1 - 1997\08 Delirium (Radio Mix).wav

     Пиковый уровень 98.0 %
     Скорость извлечения 4.9 X
     Качество трека 100.0 %
     CRC теста 350DD778
     CRC копии 350DD778
     Точность не определена (достоверность 1)  [94EDFF19], AccurateRip вернул [791A29F6]  (AR v2)
     Копирование... OK

Трек  9

     Имя файла Z:\[HD]\- [Base House] [VA & CDM]\[Сборники]\[Flac] Va - DJ POOL Vol. 1 - 1997\09 For This World (Striking Man Remix).wav

     Пиковый уровень 100.0 %
     Скорость извлечения 4.9 X
     Качество трека 99.9 %
     CRC теста C7C5B8FC
     CRC копии C7C5B8FC
     Точность не определена (достоверность 1)  [DD465828], AccurateRip вернул [585D23C8]  (AR v2)
     Копирование... OK

Трек 10

     Имя файла Z:\[HD]\- [Base House] [VA & CDM]\[Сборники]\[Flac] Va - DJ POOL Vol. 1 - 1997\10 Yabolesh (Club Mix).wav

     Пиковый уровень 98.8 %
     Скорость извлечения 5.6 X
     Качество трека 100.0 %
     CRC теста 5EC4F2AA
     CRC копии 5EC4F2AA
     Точность не определена (достоверность 1)  [76722E62], AccurateRip вернул [2CE7DB3F]  (AR v2)
     Копирование... OK

Трек 11

     Имя файла Z:\[HD]\- [Base House] [VA & CDM]\[Сборники]\[Flac] Va - DJ POOL Vol. 1 - 1997\11 Hot & Wet (Short Mix).wav

     Пиковый уровень 98.8 %
     Скорость извлечения 5.5 X
     Качество трека 100.0 %
     CRC теста E411BB38
     CRC копии E411BB38
     Точность не определена (достоверность 1)  [6DBA57AE], AccurateRip вернул [A48002EF]  (AR v2)
     Копирование... OK

Трек 12

     Имя файла Z:\[HD]\- [Base House] [VA & CDM]\[Сборники]\[Flac] Va - DJ POOL Vol. 1 - 1997\12 Fantasya (Hit 2 Mix).wav

     Пиковый уровень 90.4 %
     Скорость извлечения 5.6 X
     Качество трека 100.0 %
     CRC теста 14D2A83B
     CRC копии 14D2A83B
     Точность не определена (достоверность 1)  [29A379B5], AccurateRip вернул [94E998D7]  (AR v2)
     Копирование... OK

Трек 13

     Имя файла Z:\[HD]\- [Base House] [VA & CDM]\[Сборники]\[Flac] Va - DJ POOL Vol. 1 - 1997\13 Yah K.K. (K.K. Alert Mix).wav

     Пиковый уровень 98.0 %
     Скорость извлечения 6.1 X
     Качество трека 100.0 %
     CRC теста AF8ACE55
     CRC копии AF8ACE55
     Точность не определена (достоверность 1)  [1F53CA5D], AccurateRip вернул [5D50BA4A]  (AR v2)
     Копирование... OK

Трек 14

     Имя файла Z:\[HD]\- [Base House] [VA & CDM]\[Сборники]\[Flac] Va - DJ POOL Vol. 1 - 1997\14 Koma (Radio Mix).wav

     Пиковый уровень 97.7 %
     Скорость извлечения 6.0 X
     Качество трека 100.0 %
     CRC теста C80772BA
     CRC копии C80772BA
     Точность не определена (достоверность 1)  [6E7FC87A], AccurateRip вернул [CBF17ABC]  (AR v2)
     Копирование... OK

Ни один трек не прошёл проверки на точность
В вашей базе может быть иной вариант штамповки диска

Ошибок не произошло

Конец отчёта

---- CUETools DB Plugin V2.1.3

[CTDB TOCID: Hic4I_4iPfMf7WYCa2_ImyrFwcM-] disk not present in database, Submit result: database access error: Невозможно разрешить удаленное имя: 'db.cuetools.net'

==== Контрольная сумма отчёта 7C14E9184DB74FCEBCDF26F1ED3F6660246237231312A45CDD4B6F4A21C42199 ====

Код:

AUDIOCHECKER v2.0 beta (build 457) - by Dester - opdester@freemail.hu
~~~~~~~~~~~~~~~~~~~~~~~~~~~~~~~~~~

Started at: понедельник, 21. 01. 2013. - 19:04.43
14 files found

01 -===- Z:\[HD]\- [Base House] [VA & CDM]\[Сборники]\[Flac] Va - DJ POOL Vol. 1 - 1997\(DJ Pool-1) (01) [Quench] - Dreams (DJ Maverick Remix).wav
  Conclusion: this track is CDDA with probability 100%

02 -===- Z:\[HD]\- [Base House] [VA & CDM]\[Сборники]\[Flac] Va - DJ POOL Vol. 1 - 1997\(DJ Pool-1) (02) [666] - Alarma (A-Trax Club Remix).wav
  Conclusion: this track is CDDA with probability 99%

03 -===- Z:\[HD]\- [Base House] [VA & CDM]\[Сборники]\[Flac] Va - DJ POOL Vol. 1 - 1997\(DJ Pool-1) (03) [Klubbheads]- Discohopping (Dons La Discotec Mix).wav
  Conclusion: this track is CDDA with probability 100%

04 -===- Z:\[HD]\- [Base House] [VA & CDM]\[Сборники]\[Flac] Va - DJ POOL Vol. 1 - 1997\(DJ Pool-1) (04) [DJ Phaser] - Thunder In Space (Club Mix).wav
  Conclusion: this track is CDDA with probability 100%

05 -===- Z:\[HD]\- [Base House] [VA & CDM]\[Сборники]\[Flac] Va - DJ POOL Vol. 1 - 1997\(DJ Pool-1) (05) [Sequential One (Sq-1)] - Dreams (Klubbheads Remix).wav
  Conclusion: this track is CDDA with probability 100%

06 -===- Z:\[HD]\- [Base House] [VA & CDM]\[Сборники]\[Flac] Va - DJ POOL Vol. 1 - 1997\(DJ Pool-1) (06) [Milk Inc.] - Free Your Mind (Roadrunner Mix).wav
  Conclusion: this track is CDDA with probability 100%

07 -===- Z:\[HD]\- [Base House] [VA & CDM]\[Сборники]\[Flac] Va - DJ POOL Vol. 1 - 1997\(DJ Pool-1) (07) [TO] - Diva (Bells Radio Mix).wav
  Conclusion: this track is CDDA with probability 100%

08 -===- Z:\[HD]\- [Base House] [VA & CDM]\[Сборники]\[Flac] Va - DJ POOL Vol. 1 - 1997\(DJ Pool-1) (08) [DJ Fred & Arnold T.] - Delirium (Radio Mix).wav
  Conclusion: this track is CDDA with probability 100%

09 -===- Z:\[HD]\- [Base House] [VA & CDM]\[Сборники]\[Flac] Va - DJ POOL Vol. 1 - 1997\(DJ Pool-1) (09) [Red 5] - For This World (Striking Man Remix).wav
  Conclusion: this track is CDDA with probability 100%

10 -===- Z:\[HD]\- [Base House] [VA & CDM]\[Сборники]\[Flac] Va - DJ POOL Vol. 1 - 1997\(DJ Pool-1) (10) [DJ Sergio] - Yabolesh (Club Mix).wav
  Conclusion: this track is CDDA with probability 100%

11 -===- Z:\[HD]\- [Base House] [VA & CDM]\[Сборники]\[Flac] Va - DJ POOL Vol. 1 - 1997\(DJ Pool-1) (11) [DJ Maverick] - Hot & Wet (Short Mix).wav
  Conclusion: this track is CDDA with probability 100%

12 -===- Z:\[HD]\- [Base House] [VA & CDM]\[Сборники]\[Flac] Va - DJ POOL Vol. 1 - 1997\(DJ Pool-1) (12) [Dyno] - Fantasya (Hit 2 Mix).wav
  Conclusion: this track is CDDA with probability 100%

13 -===- Z:\[HD]\- [Base House] [VA & CDM]\[Сборники]\[Flac] Va - DJ POOL Vol. 1 - 1997\(DJ Pool-1) (13) [After Hour] - Yah K.K. (K.K. Alert Mix).wav
  Conclusion: this track is CDDA with probability 100%

14 -===- Z:\[HD]\- [Base House] [VA & CDM]\[Сборники]\[Flac] Va - DJ POOL Vol. 1 - 1997\(DJ Pool-1) (14) [Interactive] - Koma (Radio Mix).wav
  Conclusion: this track is CDDA with probability 100%

Finished at: понедельник, 21. 01. 2013. - 19:12.07 (operation time: 0:07.23)

Страница 1 из 1

new_topic  reply_topic

Текущее время: 06-Май 18:58
Часовой пояс: GMT + 4

m Сделано с любовью PR-CY.ru Каталог webplus.info