Вход на сайт

Имя:
Пароль:

· Забыли пароль?
logo
Портал Форум
Регистрация Вход


new_topic  reply_topic

  (Club / Dance) Танцевальный Рай Club Version 1998, FLAC (image + .cue)

pic
Год выпуска: 1998
Страна: Разные
Производитель: Россия
Жанр: Club / Dance
Номер #: SZCD 1090-98 (Студия "СОЮЗ")
Продолжительность: ~ 73 минуты

Тип издания: сборник
Аудио кодек: FLAC
Тип рипа: (image + .cue)
Битрейт аудио: lossless

Треклист:

01. Obgect One - Typewriter (Original Mix)
02. Sash! - La Primavera (Da Jamex & De Leon Remix)
03. Rodriguez - Caramba! (Caraja Mix)
04. Dj Underwater - Disco Black (Bass Pizz Mix)
05. Klubbheads - Discohopping (RTL Mix)
06. Discosluts - Let's All Chant (Club Mix)
07. Phat 'n' Phunky - Let's Groove (Original Mix)
08. Dj Flavours - Your Carres (Open Arms Mix)
09. Porn Kings - Amour C'mon (Lackout's Vihrating Bed Remix)
10. Dj Supreme - Tha Horns Of Jericho (Porn Kings Full On Remix)
11. Manolo - Straight To Ya (Monster Mix)
12. S-J - I Feel Divine (Club Mix)

Код:

Exact Audio Copy V0.99 prebeta 5 from 4. May 2009

Отчёт EAC об извлечении, выполненном 11. декабря 2012, 13:28

Various / Танцевальный Рай Club Version

Дисковод: PLEXTOR DVDR   PX-800A   Adapter: 0  ID: 0

Режим чтения                 : Достоверность
Использование точного потока : Да
Отключение кэша аудио        : Да
Использование указателей C2  : Нет

Коррекция смещения при чтении                     : 48
Способность читать области Lead-in и Lead-out     : Нет
Заполнение пропущенных сэмплов тишиной            : Да
Удаление блоков с тишиной в начале и конце        : Нет
При вычислениях CRC использовались нулевые сэмплы : Да
Интерфейс                                         : Встроенный Win32-интерфейс для Win NT/2000

Выходной формат : Внутренние WAV-операции
Формат сэмплов  : 44.100 Гц; 16 бит; стерео

TOC извлечённого CD

     Трек |   Старт  | Длительность | Начальный сектор | Конечный сектор
    ---------------------------------------------------------------------
       1  |  0:00.10 |    6:44.32   |          10      |      30341     
       2  |  6:44.42 |    6:03.70   |       30342      |      57636     
       3  | 12:48.37 |    5:36.65   |       57637      |      82901     
       4  | 18:25.27 |    6:25.13   |       82902      |     111789     
       5  | 24:50.40 |    5:12.12   |      111790      |     135201     
       6  | 30:02.52 |    7:13.03   |      135202      |     167679     
       7  | 37:15.55 |    3:42.45   |      167680      |     184374     
       8  | 40:58.25 |    6:20.05   |      184375      |     212879     
       9  | 47:18.30 |    5:37.35   |      212880      |     238189     
      10  | 52:55.65 |    5:29.67   |      238190      |     262931     
      11  | 58:25.57 |    6:57.73   |      262932      |     294279     
      12  | 65:23.55 |    7:01.72   |      294280      |     325926     

Характеристики диапазона извлечения и сообщения об ошибках

Выбранный диапазон

     Имя файла C:\Temp\Образы\Various - Танцевальный Рай Club Version.wav

     Пиковый уровень 98.8 %
     Качество диапазона 99.9 %
     CRC теста A873F36A
     CRC копии A873F36A
     Копирование... OK

Ошибок не произошло

 
AccurateRip: сводка
 
Трек  1  нет в базе данных
Трек  2  нет в базе данных
Трек  3  нет в базе данных
Трек  4  нет в базе данных
Трек  5  нет в базе данных
Трек  6  нет в базе данных
Трек  7  нет в базе данных
Трек  8  нет в базе данных
Трек  9  нет в базе данных
Трек 10  нет в базе данных
Трек 11  нет в базе данных
Трек 12  нет в базе данных
 
Ни одного трека нет в базе AccurateRip

Конец отчёта



Страница 1 из 1

new_topic  reply_topic

Текущее время: 06-Май 19:26
Часовой пояс: GMT + 4

m Сделано с любовью PR-CY.ru Каталог webplus.info