Вход на сайт

Имя:
Пароль:

· Забыли пароль?
logo
Портал Форум
Регистрация Вход


new_topic  reply_topic

  (Trance) Various Artists - React Techno Classics 1998, APE (image + .cue)

pic
Год выпуска: 1998
Производитель: Россия
Жанр: Trance
Номер #: DG Records Tocano DK 25304, LDDG 080
Продолжительность: 73:50

Тип издания: сборник
Аудио кодек: APE
Тип рипа: (image + .cue)
Битрейт аудио: lossless

Треклист:

01. Zouk Present' s Transcendental Experience - Vicious
02. Blue Peter - The Picture' s In You' r Mind ( Arabesque Mix )
03. Armadillo - The Hopper ( Princess Kiss Mix )
04. Madame Dubois - Ignition
05. Elevator - Shinny ( Harmony Mix )
06. The Age Of Love - The Age Of Love ( Watch Out For Stella Mix )
07. GTO - The Tip Of The Iceberg ( Jesus Jones Mix )
08. Shimmon & Woolfson - Evil Queen ( Full Force Mix )
09. Seb - Rainbow Island' s ( Friend' s, Lover' s & Family Mix )
10. S-J - Fever ( Baby Doc Original Mix )

Доп. информация: 5,6 Треки MP3

Код:

Exact Audio Copy V0.99 prebeta 5 from 4. May 2009

Отчёт EAC об извлечении, выполненном 30. июня 2011, 1:31

Various Artists / VA-React Techno Classics (1997)

Дисковод: Optiarc DVD RW AD-7263S   Adapter: 2  ID: 0

Режим чтения                 : Достоверность
Использование точного потока : Да
Отключение кэша аудио        : Да
Использование указателей C2  : Нет

Коррекция смещения при чтении                     : 48
Способность читать области Lead-in и Lead-out     : Нет
Заполнение пропущенных сэмплов тишиной            : Да
Удаление блоков с тишиной в начале и конце        : Нет
При вычислениях CRC использовались нулевые сэмплы : Да
Интерфейс                                         : Встроенный Win32-интерфейс для Win NT/2000

Выходной формат          : Monkey's Audio (без потерь)
Выбранный битрейт        : Extra High Lossless Compression
Качество                 : Высокий
Добавление ID3-тэга      : Нет
Утилита сжатия           : E:\Program Files\Monkey's Audio\MAC.exe
Дополнительные параметры : -w "Artist=%a" -w "Title=%t" -w "Album=%g" -w "Year=%y" -w "Track=%n" -w "Genre=%m" -h %s %d

TOC извлечённого CD

     Трек |   Старт  | Длительность | Начальный сектор | Конечный сектор
    ---------------------------------------------------------------------
       1  |  0:00.00 |    8:02.05   |           0      |      36154     
       2  |  8:02.05 |    8:06.02   |       36155      |      72606     
       3  | 16:08.07 |    5:40.70   |       72607      |      98176     
       4  | 21:49.02 |    7:03.35   |       98177      |     129936     
       5  | 28:52.37 |    7:56.65   |      129937      |     165701     
       6  | 36:49.27 |    6:47.25   |      165702      |     196251     
       7  | 43:36.52 |    6:09.38   |      196252      |     223964     
       8  | 49:46.15 |    7:42.50   |      223965      |     258664     
       9  | 57:28.65 |    9:48.30   |      258665      |     302794     
      10  | 67:17.20 |    6:33.52   |      302795      |     332321     

Характеристики диапазона извлечения и сообщения об ошибках

Выбранный диапазон

     Имя файла C:\Новая папка\Various Artists - VA-React Techno Classics (1997).wav

     Пиковый уровень 100.0 %
     Качество диапазона 100.0 %
     CRC теста 7A5A1004
     CRC копии 7A5A1004
     Копирование... OK

Ошибок не произошло

 
AccurateRip: сводка
 
Трек  1  точность не определена (достоверность 2)  [884F256E], AccurateRip вернул [F3FB6F81]
Трек  2  точность не определена (достоверность 2)  [636B98B4], AccurateRip вернул [61FF67C6]
Трек  3  точность не определена (достоверность 2)  [77B4E070], AccurateRip вернул [DFF72F84]
Трек  4  точность не определена (достоверность 2)  [3EC3EBB0], AccurateRip вернул [B03E7068]
Трек  5  точность не определена (достоверность 2)  [054C09A4], AccurateRip вернул [F49F84D8]
Трек  6  точность не определена (достоверность 2)  [19A363DC], AccurateRip вернул [4ABF25F6]
Трек  7  точность не определена (достоверность 2)  [5731646A], AccurateRip вернул [513A3C3D]
Трек  8  точность не определена (достоверность 2)  [90A18FBC], AccurateRip вернул [B0FA92A2]
Трек  9  точность не определена (достоверность 2)  [867A9841], AccurateRip вернул [4A8D9C36]
Трек 10  точность не определена (достоверность 2)  [0DB65406], AccurateRip вернул [16A74B6E]
 
Ни один трек не прошёл проверки на точность
В вашей базе может быть иной вариант штамповки диска

Конец отчёта

Страница 1 из 1

new_topic  reply_topic

Текущее время: 06-Май 19:04
Часовой пояс: GMT + 4

m Сделано с любовью PR-CY.ru Каталог webplus.info