Вход на сайт

Имя:
Пароль:

· Забыли пароль?
logo
Портал Форум
Регистрация Вход


new_topic  reply_topic

  (Club House, Euro House) Various ‎Artist – DJ Pool Vol. 5 Best Club Mixes & Remixes From Europe (CDx2) 1998, WAV (tracks + .cue), Lossless

pic
Год выпуска: 1998
Страна: Germany
Производитель: House Nation
Жанр: Club House, Euro House
Номер #: DST 089-70627.2
Тип издания: сборник
Аудио кодек: WAV
Тип рипа: (tracks + .cue)
Битрейт аудио: lossless

Треклисты:

Код:

01. Magic Melody (SSL 9000 Smooth Mix) - Groove Solution
02. The Final Destiny (Non Verbal Rmx) - Virus
03. Techno Cat (De Ville's Club Mix) - Mike De Ville
04. Decadencia (Ibiza Rmx) - La Morena
05. Lose My Mind (Hardfloor Mix) - Daman Van Thorn
06. Day To Remember (Club Mix) - Asgard
07. Angels (DJ Manta Remix) - Sequential One
08. Control Me (Section 1) - Steven Gore
09. Arrival (Smooth Mix) - Ssl 9000
10. La Luna (Club Mix) - TC Trance
11. Bomba! (Extended Mix) - 666

Код:

01. Uprising (SSL 9000's Bootleg Mix) - Silvio Ecomo
02. Black Jack (Club Mix) - Pulsar
03. Face Down, Ass Up! (Spacekid's Club Rmx) - DJ Isaac
04. Do U Wanna Jam (Club Mix) - Ryan Cube Vs. Dr. Phatt
05. Up To You (Deep Mix) - Radium
06. Kiss! (Restyler Remix) - Miss C.
07. Throw (Mijk De Vit Rmx) - PCP Quartet
08. Crazy (Club Mix) - MDB
09. You Can Get It (Mijk De Vit Remix) - TC Club
10. Hammer (Mario De Bellis Remix) - D-Ultimate
11. Acid Booster (Part 1 Club Mix) - Techno Kixx
12. Get Naughty (Saw Club Mix) - Dangerous Zone

Код:

Exact Audio Copy V1.0 beta 3 from 29. August 2011

Отчёт EAC об извлечении, выполненном 24. октября 2012, 16:05

Various / DJ Pool Vol. 5

Дисковод: Optiarc DVD+-RW AD-7560S   Adapter: 1  ID: 0

Режим чтения                 : Достоверность
Использование точного потока : Да
Отключение кэша аудио        : Да
Использование указателей C2  : Нет

Коррекция смещения при чтении                     : 6
Способность читать области Lead-in и Lead-out     : Нет
Заполнение пропущенных сэмплов тишиной            : Да
Удаление блоков с тишиной в начале и конце        : Нет
При вычислениях CRC использовались нулевые сэмплы : Да
Интерфейс                                         : Встроенный Win32-интерфейс для Win NT/2000
Обработка зазоров                                 : Добавлено к предыдущему треку

Выходной формат : Внутренние WAV-операции
Формат сэмплов  : 44.100 Гц; 16 бит; стерео

TOC извлечённого CD

     Трек |   Старт  | Длительность | Начальный сектор | Конечный сектор
    ---------------------------------------------------------------------
       1  |  0:00.00 |    6:02.67   |           0      |      27216     
       2  |  6:02.67 |    6:47.04   |       27217      |      57745     
       3  | 12:49.71 |    5:06.09   |       57746      |      80704     
       4  | 17:56.05 |    4:30.22   |       80705      |     100976     
       5  | 22:26.27 |    7:02.72   |      100977      |     132698     
       6  | 29:29.24 |    7:54.66   |      132699      |     168314     
       7  | 37:24.15 |    7:44.64   |      168315      |     203178     
       8  | 45:09.04 |    7:00.19   |      203179      |     234697     
       9  | 52:09.23 |    6:45.03   |      234698      |     265075     
      10  | 58:54.26 |    6:53.12   |      265076      |     296062     
      11  | 65:47.38 |    6:24.44   |      296063      |     324906     

Трек  1

     Имя файла Z:\[HD]\- [Base House] [VA & CDM]\[Сборники]\[Flac] Va - DJ POOL Vol. 5\CD 01\01 Groove Solution - Magic Melody.wav

     Длина предзазора  0:00:02.00

     Пиковый уровень 84.3 %
     Скорость извлечения 2.8 X
     Качество трека 99.9 %
     CRC теста 686A3A16
     CRC копии 686A3A16
     Трек не обнаружен в базе AccurateRip
     Копирование... OK

Трек  2

     Имя файла Z:\[HD]\- [Base House] [VA & CDM]\[Сборники]\[Flac] Va - DJ POOL Vol. 5\CD 01\02 Virus - The final destiny.wav

     Пиковый уровень 98.0 %
     Скорость извлечения 3.6 X
     Качество трека 100.0 %
     CRC теста A6670349
     CRC копии A6670349
     Трек не обнаружен в базе AccurateRip
     Копирование... OK

Трек  3

     Имя файла Z:\[HD]\- [Base House] [VA & CDM]\[Сборники]\[Flac] Va - DJ POOL Vol. 5\CD 01\03 Mike de Ville - Techno cat.wav

     Пиковый уровень 94.4 %
     Скорость извлечения 3.8 X
     Качество трека 100.0 %
     CRC теста 55D96E0D
     CRC копии 55D96E0D
     Трек не обнаружен в базе AccurateRip
     Копирование... OK

Трек  4

     Имя файла Z:\[HD]\- [Base House] [VA & CDM]\[Сборники]\[Flac] Va - DJ POOL Vol. 5\CD 01\04 La Morena - Decadencia.wav

     Пиковый уровень 98.3 %
     Скорость извлечения 4.0 X
     Качество трека 100.0 %
     CRC теста 16499DC7
     CRC копии 16499DC7
     Трек не обнаружен в базе AccurateRip
     Копирование... OK

Трек  5

     Имя файла Z:\[HD]\- [Base House] [VA & CDM]\[Сборники]\[Flac] Va - DJ POOL Vol. 5\CD 01\05 Daman van Thorn - Lose my mind.wav

     Пиковый уровень 98.0 %
     Скорость извлечения 4.1 X
     Качество трека 99.9 %
     CRC теста DA6F1276
     CRC копии DA6F1276
     Трек не обнаружен в базе AccurateRip
     Копирование... OK

Трек  6

     Имя файла Z:\[HD]\- [Base House] [VA & CDM]\[Сборники]\[Flac] Va - DJ POOL Vol. 5\CD 01\06 Asgard - Day to remember (club mix).wav

     Пиковый уровень 99.3 %
     Скорость извлечения 5.0 X
     Качество трека 100.0 %
     CRC теста 0F8A9463
     CRC копии 0F8A9463
     Трек не обнаружен в базе AccurateRip
     Копирование... OK

Трек  7

     Имя файла Z:\[HD]\- [Base House] [VA & CDM]\[Сборники]\[Flac] Va - DJ POOL Vol. 5\CD 01\07 Sequential one - Angels (DJ Manta rmx).wav

     Пиковый уровень 96.6 %
     Скорость извлечения 5.3 X
     Качество трека 100.0 %
     CRC теста B7580683
     CRC копии B7580683
     Трек не обнаружен в базе AccurateRip
     Копирование... OK

Трек  8

     Имя файла Z:\[HD]\- [Base House] [VA & CDM]\[Сборники]\[Flac] Va - DJ POOL Vol. 5\CD 01\08 Steven Gore - Control me.wav

     Пиковый уровень 98.0 %
     Скорость извлечения 5.6 X
     Качество трека 100.0 %
     CRC теста 3C9541E9
     CRC копии 3C9541E9
     Трек не обнаружен в базе AccurateRip
     Копирование... OK

Трек  9

     Имя файла Z:\[HD]\- [Base House] [VA & CDM]\[Сборники]\[Flac] Va - DJ POOL Vol. 5\CD 01\09 SSL 9000 - Arrival.wav

     Пиковый уровень 98.0 %
     Скорость извлечения 5.1 X
     Качество трека 99.9 %
     CRC теста E4CE6B4A
     CRC копии E4CE6B4A
     Трек не обнаружен в базе AccurateRip
     Копирование... OK

Трек 10

     Имя файла Z:\[HD]\- [Base House] [VA & CDM]\[Сборники]\[Flac] Va - DJ POOL Vol. 5\CD 01\10 TC Trance - La luna.wav

     Пиковый уровень 100.0 %
     Скорость извлечения 6.1 X
     Качество трека 100.0 %
     CRC теста CB24D104
     CRC копии CB24D104
     Трек не обнаружен в базе AccurateRip
     Копирование... OK

Трек 11

     Имя файла Z:\[HD]\- [Base House] [VA & CDM]\[Сборники]\[Flac] Va - DJ POOL Vol. 5\CD 01\11 666 - Bomba!.wav

     Пиковый уровень 97.9 %
     Скорость извлечения 6.2 X
     Качество трека 100.0 %
     CRC теста F5A8F656
     CRC копии F5A8F656
     Трек не обнаружен в базе AccurateRip
     Копирование... OK

Ни одного трека нет в базе AccurateRip

Ошибок не произошло

Конец отчёта

---- CUETools DB Plugin V2.1.3

[CTDB TOCID: xNFR1i3aAl1tiuBYtQrRR.nwwN0-] disk not present in database, Submit result: xNFR1i3aAl1tiuBYtQrRR.nwwN0- has been uploaded

==== Контрольная сумма отчёта 003D830A98F8ED71D9279726B6FC82A71B66B1D94D4B3745ED8531021844EFF4 ====

Код:

Exact Audio Copy V1.0 beta 3 from 29. August 2011

Отчёт EAC об извлечении, выполненном 24. октября 2012, 18:36

Various / DJ Pool Vol. 5 CD 2

Дисковод: Optiarc DVD+-RW AD-7560S   Adapter: 1  ID: 0

Режим чтения                 : Достоверность
Использование точного потока : Да
Отключение кэша аудио        : Да
Использование указателей C2  : Нет

Коррекция смещения при чтении                     : 6
Способность читать области Lead-in и Lead-out     : Нет
Заполнение пропущенных сэмплов тишиной            : Да
Удаление блоков с тишиной в начале и конце        : Нет
При вычислениях CRC использовались нулевые сэмплы : Да
Интерфейс                                         : Встроенный Win32-интерфейс для Win NT/2000
Обработка зазоров                                 : Добавлено к предыдущему треку

Выходной формат : Внутренние WAV-операции
Формат сэмплов  : 44.100 Гц; 16 бит; стерео

TOC извлечённого CD

     Трек |   Старт  | Длительность | Начальный сектор | Конечный сектор
    ---------------------------------------------------------------------
       1  |  0:00.00 |    6:21.22   |           0      |      28596     
       2  |  6:21.22 |    6:09.00   |       28597      |      56271     
       3  | 12:30.22 |    5:17.72   |       56272      |      80118     
       4  | 17:48.19 |    6:17.22   |       80119      |     108415     
       5  | 24:05.41 |    6:02.57   |      108416      |     135622     
       6  | 30:08.23 |    5:53.26   |      135623      |     162123     
       7  | 36:01.49 |    6:01.20   |      162124      |     189218     
       8  | 42:02.69 |    5:39.21   |      189219      |     214664     
       9  | 47:42.15 |    6:16.06   |      214665      |     242870     
      10  | 53:58.21 |    7:12.24   |      242871      |     275294     
      11  | 61:10.45 |    6:28.66   |      275295      |     304460     
      12  | 67:39.36 |    5:52.44   |      304461      |     330904     

Трек  1

     Имя файла Z:\[HD]\- [Base House] [VA & CDM]\[Сборники]\[Flac] Va - DJ POOL Vol. 5\CD 02\01 Silvio Ecomo - Uprising.wav

     Длина предзазора  0:00:02.00

     Пиковый уровень 98.8 %
     Скорость извлечения 3.1 X
     Качество трека 100.0 %
     CRC теста 4A475AD8
     CRC копии 4A475AD8
     Трек не обнаружен в базе AccurateRip
     Копирование... OK

Трек  2

     Имя файла Z:\[HD]\- [Base House] [VA & CDM]\[Сборники]\[Flac] Va - DJ POOL Vol. 5\CD 02\02 Pulsar - Black Jack.wav

     Пиковый уровень 99.1 %
     Скорость извлечения 3.6 X
     Качество трека 100.0 %
     CRC теста B36EC944
     CRC копии B36EC944
     Трек не обнаружен в базе AccurateRip
     Копирование... OK

Трек  3

     Имя файла Z:\[HD]\- [Base House] [VA & CDM]\[Сборники]\[Flac] Va - DJ POOL Vol. 5\CD 02\03 DJ Isaac - Face down, ass up!.wav

     Пиковый уровень 98.0 %
     Скорость извлечения 3.9 X
     Качество трека 100.0 %
     CRC теста 0DC84C88
     CRC копии 0DC84C88
     Трек не обнаружен в базе AccurateRip
     Копирование... OK

Трек  4

     Имя файла Z:\[HD]\- [Base House] [VA & CDM]\[Сборники]\[Flac] Va - DJ POOL Vol. 5\CD 02\04 Ryan Cube vs. Dr. Phatt - Do u wanna jam.wav

     Пиковый уровень 100.0 %
     Скорость извлечения 4.3 X
     Качество трека 100.0 %
     CRC теста 9D49F9AD
     CRC копии 9D49F9AD
     Трек не обнаружен в базе AccurateRip
     Копирование... OK

Трек  5

     Имя файла Z:\[HD]\- [Base House] [VA & CDM]\[Сборники]\[Flac] Va - DJ POOL Vol. 5\CD 02\05 Radium - Up to you.wav

     Пиковый уровень 100.0 %
     Скорость извлечения 4.6 X
     Качество трека 100.0 %
     CRC теста CCF28BB7
     CRC копии CCF28BB7
     Трек не обнаружен в базе AccurateRip
     Копирование... OK

Трек  6

     Имя файла Z:\[HD]\- [Base House] [VA & CDM]\[Сборники]\[Flac] Va - DJ POOL Vol. 5\CD 02\06 Miss C - Kiss!.wav

     Пиковый уровень 93.5 %
     Скорость извлечения 4.8 X
     Качество трека 100.0 %
     CRC теста ADE03117
     CRC копии ADE03117
     Трек не обнаружен в базе AccurateRip
     Копирование... OK

Трек  7

     Имя файла Z:\[HD]\- [Base House] [VA & CDM]\[Сборники]\[Flac] Va - DJ POOL Vol. 5\CD 02\07 PCP Quartet - Throw.wav

     Пиковый уровень 100.0 %
     Скорость извлечения 5.1 X
     Качество трека 100.0 %
     CRC теста 85461083
     CRC копии 85461083
     Трек не обнаружен в базе AccurateRip
     Копирование... OK

Трек  8

     Имя файла Z:\[HD]\- [Base House] [VA & CDM]\[Сборники]\[Flac] Va - DJ POOL Vol. 5\CD 02\08 MDB - Crazy.wav

     Пиковый уровень 98.8 %
     Скорость извлечения 4.6 X
     Качество трека 99.9 %
     CRC теста 474EB15E
     CRC копии 474EB15E
     Трек не обнаружен в базе AccurateRip
     Копирование... OK

Трек  9

     Имя файла Z:\[HD]\- [Base House] [VA & CDM]\[Сборники]\[Flac] Va - DJ POOL Vol. 5\CD 02\09 TC Club - You can get it.wav

     Пиковый уровень 100.0 %
     Скорость извлечения 5.6 X
     Качество трека 100.0 %
     CRC теста EF8260AB
     CRC копии EF8260AB
     Трек не обнаружен в базе AccurateRip
     Копирование... OK

Трек 10

     Имя файла Z:\[HD]\- [Base House] [VA & CDM]\[Сборники]\[Flac] Va - DJ POOL Vol. 5\CD 02\10 D-Ultimate - Hammer.wav

     Пиковый уровень 100.0 %
     Скорость извлечения 5.9 X
     Качество трека 100.0 %
     CRC теста 21AFF789
     CRC копии 21AFF789
     Трек не обнаружен в базе AccurateRip
     Копирование... OK

Трек 11

     Имя файла Z:\[HD]\- [Base House] [VA & CDM]\[Сборники]\[Flac] Va - DJ POOL Vol. 5\CD 02\11 Techno Kixx - Acid booster.wav

     Пиковый уровень 97.7 %
     Скорость извлечения 6.1 X
     Качество трека 100.0 %
     CRC теста D3527CCD
     CRC копии D3527CCD
     Трек не обнаружен в базе AccurateRip
     Копирование... OK

Трек 12

     Имя файла Z:\[HD]\- [Base House] [VA & CDM]\[Сборники]\[Flac] Va - DJ POOL Vol. 5\CD 02\12 Dangerous Zone - Get naughty.wav

     Пиковый уровень 98.8 %
     Скорость извлечения 5.3 X
     Качество трека 99.9 %
     CRC теста 181A93BB
     CRC копии 181A93BB
     Трек не обнаружен в базе AccurateRip
     Копирование... OK

Ни одного трека нет в базе AccurateRip

Ошибок не произошло

Конец отчёта

---- CUETools DB Plugin V2.1.3

[CTDB TOCID: eoqKlqOfFO9pGzjfauWNYhLzs.8-] disk not present in database, Submit result: eoqKlqOfFO9pGzjfauWNYhLzs.8- has been uploaded

==== Контрольная сумма отчёта 2473C7C12699F583A7B2430C6A877FCACE294D6256840315B85E583E80D2E732 ====

Страница 1 из 1

new_topic  reply_topic

Текущее время: 06-Май 20:19
Часовой пояс: GMT + 4

m Сделано с любовью PR-CY.ru Каталог webplus.info