Вход на сайт

Имя:
Пароль:

· Забыли пароль?
logo
Портал Форум
Регистрация Вход


new_topic  reply_topic

  (Club House, Euro House) Various ‎Artist – DJ Pool Vol. 2 Best Club Mixes & Remixes From Europe 1998, WAV (tracks + .cue), Lossless

pic
Год выпуска: 1998
Страна: Germany
Производитель: House Nation
Жанр: Club House, Euro House
Номер #: DST 085-70311.2
Тип издания: сборник
Аудио кодек: WAV
Тип рипа: (tracks + .cue)
Битрейт аудио: lossless

Треклист:

01. Tantra - I Want Ur Love [DJ Buzz Mix]
02. BCM Project, Bellow- Floor Filler [Remix]
03. Dyno - (There Is) Proghress [Boys on 33 Mix]
04. DJ Ray Corn & Friends - Happiness [P.A. Mix]
05. DJ Priest - I Pray [Club Mix]
06. DJ Dero - The Horn [Killer Horn Mix]
07. Six Six Six - Diablo [Club Mix]
08. Collins System - OHM [Surikanta Mix]
09. Outhere Brothers - Pass the Toilet Paper
10. After Hour - I Love Elvis
11. Masty Pat Jam - The Squeeler [Club Mix]
12. Jazz Fingers - Damn That Body
13. Jazz Fingers - Friday Night in N.Y.
14. Fast NY Fast - Fast NY Fast [Bossanova Mix]

Код:

Exact Audio Copy V1.0 beta 3 from 29. August 2011

Отчёт EAC об извлечении, выполненном 24. октября 2012, 13:59

Various Artists / DJ Pool, Volume 2

Дисковод: Optiarc DVD+-RW AD-7560S   Adapter: 1  ID: 0

Режим чтения                 : Достоверность
Использование точного потока : Да
Отключение кэша аудио        : Да
Использование указателей C2  : Нет

Коррекция смещения при чтении                     : 6
Способность читать области Lead-in и Lead-out     : Нет
Заполнение пропущенных сэмплов тишиной            : Да
Удаление блоков с тишиной в начале и конце        : Нет
При вычислениях CRC использовались нулевые сэмплы : Да
Интерфейс                                         : Встроенный Win32-интерфейс для Win NT/2000
Обработка зазоров                                 : Добавлено к предыдущему треку

Выходной формат : Внутренние WAV-операции
Формат сэмплов  : 44.100 Гц; 16 бит; стерео

TOC извлечённого CD

     Трек |   Старт  | Длительность | Начальный сектор | Конечный сектор
    ---------------------------------------------------------------------
       1  |  0:00.00 |    7:21.69   |           0      |      33143     
       2  |  7:21.69 |    6:10.30   |       33144      |      60923     
       3  | 13:32.24 |    5:24.17   |       60924      |      85240     
       4  | 18:56.41 |    4:19.17   |       85241      |     104682     
       5  | 23:15.58 |    5:56.74   |      104683      |     131456     
       6  | 29:12.57 |    7:38.03   |      131457      |     165809     
       7  | 36:50.60 |    5:07.58   |      165810      |     188892     
       8  | 41:58.43 |    4:43.59   |      188893      |     210176     
       9  | 46:42.27 |    4:00.45   |      210177      |     228221     
      10  | 50:42.72 |    5:06.29   |      228222      |     251200     
      11  | 55:49.26 |    5:21.68   |      251201      |     275343     
      12  | 61:11.19 |    6:20.19   |      275344      |     303862     
      13  | 67:31.38 |    6:27.51   |      303863      |     332938     

Трек  1

     Имя файла Z:\[HD]\- [Base House] [VA & CDM]\[Сборники]\[Flac] Va - DJ POOL Vol. 5\CD 01\01 I Want Ur Love (DJ Buzz mix).wav

     Длина предзазора  0:00:02.00

     Пиковый уровень 97.7 %
     Скорость извлечения 3.2 X
     Качество трека 100.0 %
     CRC теста 73442DFA
     CRC копии 73442DFA
     Трек не обнаружен в базе AccurateRip
     Копирование... OK

Трек  2

     Имя файла Z:\[HD]\- [Base House] [VA & CDM]\[Сборники]\[Flac] Va - DJ POOL Vol. 5\CD 01\02 Floor Filler (remix version).wav

     Пиковый уровень 91.0 %
     Скорость извлечения 3.6 X
     Качество трека 100.0 %
     CRC теста 41F56704
     CRC копии 41F56704
     Трек не обнаружен в базе AccurateRip
     Копирование... OK

Трек  3

     Имя файла Z:\[HD]\- [Base House] [VA & CDM]\[Сборники]\[Flac] Va - DJ POOL Vol. 5\CD 01\03 (There Is) Progress (Boys on 33 mix).wav

     Пиковый уровень 98.0 %
     Скорость извлечения 3.9 X
     Качество трека 100.0 %
     CRC теста F5BE05F0
     CRC копии F5BE05F0
     Трек не обнаружен в базе AccurateRip
     Копирование... OK

Трек  4

     Имя файла Z:\[HD]\- [Base House] [VA & CDM]\[Сборники]\[Flac] Va - DJ POOL Vol. 5\CD 01\04 Happiness (P.A. mix).wav

     Пиковый уровень 98.0 %
     Скорость извлечения 4.1 X
     Качество трека 100.0 %
     CRC теста 03DDF991
     CRC копии 03DDF991
     Трек не обнаружен в базе AccurateRip
     Копирование... OK

Трек  5

     Имя файла Z:\[HD]\- [Base House] [VA & CDM]\[Сборники]\[Flac] Va - DJ POOL Vol. 5\CD 01\05 I Pray (club mix).wav

     Пиковый уровень 99.4 %
     Скорость извлечения 4.5 X
     Качество трека 100.0 %
     CRC теста E70E40B8
     CRC копии E70E40B8
     Трек не обнаружен в базе AccurateRip
     Копирование... OK

Трек  6

     Имя файла Z:\[HD]\- [Base House] [VA & CDM]\[Сборники]\[Flac] Va - DJ POOL Vol. 5\CD 01\06 The Horn (Killer Horn mix).wav

     Пиковый уровень 100.0 %
     Скорость извлечения 4.9 X
     Качество трека 100.0 %
     CRC теста C0025693
     CRC копии C0025693
     Трек не обнаружен в базе AccurateRip
     Копирование... OK

Трек  7

     Имя файла Z:\[HD]\- [Base House] [VA & CDM]\[Сборники]\[Flac] Va - DJ POOL Vol. 5\CD 01\07 Diablo (club mix).wav

     Пиковый уровень 98.0 %
     Скорость извлечения 4.2 X
     Качество трека 99.9 %
     CRC теста E0D9D6C5
     CRC копии E0D9D6C5
     Трек не обнаружен в базе AccurateRip
     Копирование... OK

Трек  8

     Имя файла Z:\[HD]\- [Base House] [VA & CDM]\[Сборники]\[Flac] Va - DJ POOL Vol. 5\CD 01\08 Ohm (Suryakanta mix).wav

     Пиковый уровень 100.0 %
     Скорость извлечения 5.2 X
     Качество трека 100.0 %
     CRC теста E9BF99CA
     CRC копии E9BF99CA
     Трек не обнаружен в базе AccurateRip
     Копирование... OK

Трек  9

     Имя файла Z:\[HD]\- [Base House] [VA & CDM]\[Сборники]\[Flac] Va - DJ POOL Vol. 5\CD 01\09 Pass the Toilet Paper (Diggin' da dub).wav

     Пиковый уровень 98.0 %
     Скорость извлечения 5.2 X
     Качество трека 100.0 %
     CRC теста 2564E6F6
     CRC копии 2564E6F6
     Трек не обнаружен в базе AccurateRip
     Копирование... OK

Трек 10

     Имя файла Z:\[HD]\- [Base House] [VA & CDM]\[Сборники]\[Flac] Va - DJ POOL Vol. 5\CD 01\10 I Love Elvis (club mix).wav

     Пиковый уровень 100.0 %
     Скорость извлечения 4.7 X
     Качество трека 99.9 %
     CRC теста 221B0B90
     CRC копии 221B0B90
     Трек не обнаружен в базе AccurateRip
     Копирование... OK

Трек 11

     Имя файла Z:\[HD]\- [Base House] [VA & CDM]\[Сборники]\[Flac] Va - DJ POOL Vol. 5\CD 01\11 The Squeeler (club mix).wav

     Пиковый уровень 100.0 %
     Скорость извлечения 5.7 X
     Качество трека 100.0 %
     CRC теста A050DBB4
     CRC копии A050DBB4
     Трек не обнаружен в базе AccurateRip
     Копирование... OK

Трек 12

     Имя файла Z:\[HD]\- [Base House] [VA & CDM]\[Сборники]\[Flac] Va - DJ POOL Vol. 5\CD 01\12 Damn That Body (Nas-K remix).wav

     Пиковый уровень 100.0 %
     Скорость извлечения 6.0 X
     Качество трека 100.0 %
     CRC теста 674BB232
     CRC копии 674BB232
     Трек не обнаружен в базе AccurateRip
     Копирование... OK

Трек 13

     Имя файла Z:\[HD]\- [Base House] [VA & CDM]\[Сборники]\[Flac] Va - DJ POOL Vol. 5\CD 01\13 Friday Night in N.Y..wav

     Пиковый уровень 99.4 %
     Скорость извлечения 6.2 X
     Качество трека 100.0 %
     CRC теста 2A16DD57
     CRC копии 2A16DD57
     Трек не обнаружен в базе AccurateRip
     Копирование... OK

Ни одного трека нет в базе AccurateRip

Ошибок не произошло

Конец отчёта

---- CUETools DB Plugin V2.1.3

[CTDB TOCID: W0J2X.Aa_775iDbi8NWk1frc7mw-] disk not present in database, Submit result: W0J2X.Aa_775iDbi8NWk1frc7mw- has been uploaded

==== Контрольная сумма отчёта E97AF909F8DFEDA829142BA9CB0E8A1B9B1ED84C46CCDB64DF20BB1924CBC3A9 ====

Страница 1 из 1

new_topic  reply_topic

Текущее время: 06-Май 19:55
Часовой пояс: GMT + 4

m Сделано с любовью PR-CY.ru Каталог webplus.info