Вход на сайт

Имя:
Пароль:

· Забыли пароль?
logo
Портал Форум
Регистрация Вход


new_topic  reply_topic

  (Club House, Euro House) Various ‎Artist – DJ Pool Vol. 4 Best Club Mixes & Remixes From Europe 1998, WAV (tracks + .cue), Lossless

pic
Год выпуска: 1998
Страна: Germany
Производитель: Dance Street Records
Жанр: Club House, Euro House
Номер #: DST 085- 70370.2
Тип издания: сборник
Аудио кодек: WAV
Тип рипа: (tracks + .cue)
Битрейт аудио: lossless

Треклист:

1 KGB Connection – Oacid (Electro Lounge Mix)
2 Silvio Ecomo – The Pull (Speedgarage Mix)
3 Da Drumm Boys – Music (Club Mix)
4 Mad Dog (6) Presents MD 20/20 – The Feelings Of House (Speedgarage Mix)
5 Amarish – Daydream (DJ Ablaze Remix)
6 Virus (8) – Forever In Love (Plate Space RMX)
8 Sheryl Lee Ralph – In The Evening (Kinky Boyz Dub)
9 Pigs, The – Brazilian Rhyme (Groovement Mix)
10 De-Vize – Activate Your Energy (Extended Radio)


Доп. информация:
_______________________________________________
http://www.discogs.com/DJ-Pool-Vol4-Various/release/1799073

Код:

Exact Audio Copy V1.0 beta 3 from 29. August 2011

Отчёт EAC об извлечении, выполненном 24. октября 2012, 2:18

DJ Pool / Volume 4

Дисковод: Optiarc DVD+-RW AD-7560S   Adapter: 1  ID: 0

Режим чтения                 : Достоверность
Использование точного потока : Да
Отключение кэша аудио        : Да
Использование указателей C2  : Нет

Коррекция смещения при чтении                     : 6
Способность читать области Lead-in и Lead-out     : Нет
Заполнение пропущенных сэмплов тишиной            : Да
Удаление блоков с тишиной в начале и конце        : Нет
При вычислениях CRC использовались нулевые сэмплы : Да
Интерфейс                                         : Встроенный Win32-интерфейс для Win NT/2000
Обработка зазоров                                 : Добавлено к предыдущему треку

Выходной формат : Внутренние WAV-операции
Формат сэмплов  : 44.100 Гц; 16 бит; стерео

TOC извлечённого CD

     Трек |   Старт  | Длительность | Начальный сектор | Конечный сектор
    ---------------------------------------------------------------------
       1  |  0:00.32 |    8:38.40   |          32      |      38921     
       2  |  8:38.72 |    6:54.53   |       38922      |      70024     
       3  | 15:33.50 |    6:24.30   |       70025      |      98854     
       4  | 21:58.05 |    6:45.72   |       98855      |     129301     
       5  | 28:44.02 |    6:38.25   |      129302      |     159176     
       6  | 35:22.27 |    6:58.15   |      159177      |     190541     
       7  | 42:20.42 |    6:48.20   |      190542      |     221161     
       8  | 49:08.62 |    6:56.30   |      221162      |     252391     
       9  | 56:05.17 |    6:21.73   |      252392      |     281039     
      10  | 62:27.15 |    4:52.17   |      281040      |     302956     

Трек  1

     Имя файла Z:\[HD]\- [Base House] [VA & CDM]\[Сборники]\[Flac] Va - DJ POOL Vol. 4\7\01 Oacid (electro lounge mix).wav

     Длина предзазора  0:00:02.32

     Пиковый уровень 99.8 %
     Скорость извлечения 3.1 X
     Качество трека 99.9 %
     CRC теста 8855AB80
     CRC копии 8855AB80
     Трек не обнаружен в базе AccurateRip
     Копирование... OK

Трек  2

     Имя файла Z:\[HD]\- [Base House] [VA & CDM]\[Сборники]\[Flac] Va - DJ POOL Vol. 4\7\02 The pull (Speedgarage mix).wav

     Пиковый уровень 98.0 %
     Скорость извлечения 3.9 X
     Качество трека 100.0 %
     CRC теста A01F9951
     CRC копии A01F9951
     Трек не обнаружен в базе AccurateRip
     Копирование... OK

Трек  3

     Имя файла Z:\[HD]\- [Base House] [VA & CDM]\[Сборники]\[Flac] Va - DJ POOL Vol. 4\7\03 Music (club mix).wav

     Пиковый уровень 98.0 %
     Скорость извлечения 4.2 X
     Качество трека 100.0 %
     CRC теста F4ED9766
     CRC копии F4ED9766
     Трек не обнаружен в базе AccurateRip
     Копирование... OK

Трек  4

     Имя файла Z:\[HD]\- [Base House] [VA & CDM]\[Сборники]\[Flac] Va - DJ POOL Vol. 4\7\04 The feelings of house (Speedgarage mix).wav

     Пиковый уровень 99.9 %
     Скорость извлечения 4.6 X
     Качество трека 100.0 %
     CRC теста A4D2B002
     CRC копии A4D2B002
     Трек не обнаружен в базе AccurateRip
     Копирование... OK

Трек  5

     Имя файла Z:\[HD]\- [Base House] [VA & CDM]\[Сборники]\[Flac] Va - DJ POOL Vol. 4\7\05 Daydream (DJ Abalaze remix).wav

     Пиковый уровень 98.0 %
     Скорость извлечения 4.9 X
     Качество трека 100.0 %
     CRC теста 309B5BF6
     CRC копии 309B5BF6
     Трек не обнаружен в базе AccurateRip
     Копирование... OK

Трек  6

     Имя файла Z:\[HD]\- [Base House] [VA & CDM]\[Сборники]\[Flac] Va - DJ POOL Vol. 4\7\06 Forever in love (Plate Space remix).wav

     Пиковый уровень 100.0 %
     Скорость извлечения 5.2 X
     Качество трека 100.0 %
     CRC теста 04423397
     CRC копии 04423397
     Трек не обнаружен в базе AccurateRip
     Копирование... OK

Трек  7

     Имя файла Z:\[HD]\- [Base House] [VA & CDM]\[Сборники]\[Flac] Va - DJ POOL Vol. 4\7\07 We are ing (extended club mix).wav

     Пиковый уровень 100.0 %
     Скорость извлечения 5.5 X
     Качество трека 100.0 %
     CRC теста 23CF9349
     CRC копии 23CF9349
     Трек не обнаружен в базе AccurateRip
     Копирование... OK

Трек  8

     Имя файла Z:\[HD]\- [Base House] [VA & CDM]\[Сборники]\[Flac] Va - DJ POOL Vol. 4\7\08 In the evening (Kinky Boys dub).wav

     Пиковый уровень 99.9 %
     Скорость извлечения 5.8 X
     Качество трека 100.0 %
     CRC теста 7910AF87
     CRC копии 7910AF87
     Трек не обнаружен в базе AccurateRip
     Копирование... OK

Трек  9

     Имя файла Z:\[HD]\- [Base House] [VA & CDM]\[Сборники]\[Flac] Va - DJ POOL Vol. 4\7\09 Brazilian Rhyme (Groovement mix).wav

     Пиковый уровень 100.0 %
     Скорость извлечения 6.0 X
     Качество трека 100.0 %
     CRC теста 4ACC1F42
     CRC копии 4ACC1F42
     Трек не обнаружен в базе AccurateRip
     Копирование... OK

Трек 10

     Имя файла Z:\[HD]\- [Base House] [VA & CDM]\[Сборники]\[Flac] Va - DJ POOL Vol. 4\7\10 Activate your energy (extended mix).wav

     Пиковый уровень 100.0 %
     Скорость извлечения 6.0 X
     Качество трека 100.0 %
     CRC теста 76495E0E
     CRC копии 76495E0E
     Трек не обнаружен в базе AccurateRip
     Копирование... OK

Ни одного трека нет в базе AccurateRip

Ошибок не произошло

Конец отчёта

==== Контрольная сумма отчёта E3931C730FCC41B8E4E2242A479166F3B5DCD5432404FDCCF513673263143236 ====

Страница 1 из 1

new_topic  reply_topic

Текущее время: 06-Май 19:31
Часовой пояс: GMT + 4

m Сделано с любовью PR-CY.ru Каталог webplus.info