Вход на сайт

Имя:
Пароль:

· Забыли пароль?
logo
Портал Форум
Регистрация Вход


new_topic  reply_topic

  (Club House, Euro House) Various ‎Artist – DJ Pool Vol. 3 Best Club Mixes & Remixes From Europe 1997, WAV (tracks + .cue), Lossless

pic
Год выпуска: 1997
Страна: Germany
Жанр: Club House, Euro House, Italodance
Номер #: House Nation - DST 085- 70341.2
Тип издания: сборник
Аудио кодек: WAV
Тип рипа: (tracks + .cue)
Битрейт аудио: lossless

Треклист:

1 Boys On 33 – Slam The Jam (Da Pumped UP Phunk)
2 J.A.M. In Deep – The Wave (One Moment Please!)
3 Blackwater – Deep Down (Extended Version)
4 K.K. System – Fax Message (Extended Mix)
5 Sequential One – Imagination (Main DJ Version)
6 Klub Knights – Tell The DJ (Terror Free Mix)
7 Yoda – 7 November
8 DJ Mickey – Sonic Breaker (Club Mix)
9 Mazza & Go – Bitter Sweet Symphony (Radio Version)
10 Fast NY Fast – Fast NY Fast (Bossanova Mix)
11 Silvio Ecomo – Uprising (2 Play Club Mix)
12 Enemy Mine – Who Needs Enemies (Kosmonova Remix)


Доп. информация:
_______________________________________________
http://www.discogs.com/Various-DJ-Pool-Vol3/release/1848584

Код:

Exact Audio Copy V1.0 beta 3 from 29. August 2011

Отчёт EAC об извлечении, выполненном 24. октября 2012, 1:11

various artists / DJ Pool Vol. 3

Дисковод: Optiarc DVD+-RW AD-7560S   Adapter: 1  ID: 0

Режим чтения                 : Достоверность
Использование точного потока : Да
Отключение кэша аудио        : Да
Использование указателей C2  : Нет

Коррекция смещения при чтении                     : 6
Способность читать области Lead-in и Lead-out     : Нет
Заполнение пропущенных сэмплов тишиной            : Да
Удаление блоков с тишиной в начале и конце        : Нет
При вычислениях CRC использовались нулевые сэмплы : Да
Интерфейс                                         : Встроенный Win32-интерфейс для Win NT/2000
Обработка зазоров                                 : Добавлено к предыдущему треку

Выходной формат : Внутренние WAV-операции
Формат сэмплов  : 44.100 Гц; 16 бит; стерео

TOC извлечённого CD

     Трек |   Старт  | Длительность | Начальный сектор | Конечный сектор
    ---------------------------------------------------------------------
       1  |  0:00.00 |    5:07.37   |           0      |      23061     
       2  |  5:07.37 |    6:29.33   |       23062      |      52269     
       3  | 11:36.70 |    5:21.49   |       52270      |      76393     
       4  | 16:58.44 |    5:06.39   |       76394      |      99382     
       5  | 22:05.08 |    5:47.05   |       99383      |     125412     
       6  | 27:52.13 |    6:29.25   |      125413      |     154612     
       7  | 34:21.38 |    4:11.44   |      154613      |     173481     
       8  | 38:33.07 |    7:00.03   |      173482      |     204984     
       9  | 45:33.10 |    3:02.61   |      204985      |     218695     
      10  | 48:35.71 |    6:27.15   |      218696      |     247735     
      11  | 55:03.11 |    6:42.15   |      247736      |     277900     
      12  | 61:45.26 |    6:03.06   |      277901      |     305131     

Трек  1

     Имя файла Z:\[HD]\- [Base House] [VA & CDM]\[Сборники]\[Flac] Va - DJ POOL Vol. 3\1\01 Boys On 33 _ Slam The Jam (Da Pumped Up Phunk) (X-Tended Club Mix).wav

     Длина предзазора  0:00:02.00

     Пиковый уровень 98.0 %
     Скорость извлечения 2.9 X
     Качество трека 100.0 %
     CRC теста 43954141
     CRC копии 43954141
     Трек не обнаружен в базе AccurateRip
     Копирование... OK

Трек  2

     Имя файла Z:\[HD]\- [Base House] [VA & CDM]\[Сборники]\[Flac] Va - DJ POOL Vol. 3\1\02 J.A.M. In Deep _ The Wave (One Moment Please!).wav

     Пиковый уровень 90.1 %
     Скорость извлечения 3.1 X
     Качество трека 99.9 %
     CRC теста EE436678
     CRC копии EE436678
     Трек не обнаружен в базе AccurateRip
     Копирование... OK

Трек  3

     Имя файла Z:\[HD]\- [Base House] [VA & CDM]\[Сборники]\[Flac] Va - DJ POOL Vol. 3\1\03 Blackwater _ Deep Down (Extended Version).wav

     Пиковый уровень 96.6 %
     Скорость извлечения 3.8 X
     Качество трека 100.0 %
     CRC теста FEA67DFC
     CRC копии FEA67DFC
     Трек не обнаружен в базе AccurateRip
     Копирование... OK

Трек  4

     Имя файла Z:\[HD]\- [Base House] [VA & CDM]\[Сборники]\[Flac] Va - DJ POOL Vol. 3\1\04 K.K.System _ Fax Message (Extended Mix).wav

     Пиковый уровень 94.6 %
     Скорость извлечения 4.1 X
     Качество трека 100.0 %
     CRC теста 20214631
     CRC копии 20214631
     Трек не обнаружен в базе AccurateRip
     Копирование... OK

Трек  5

     Имя файла Z:\[HD]\- [Base House] [VA & CDM]\[Сборники]\[Flac] Va - DJ POOL Vol. 3\1\05 Sequential One _ Imagination (Main DJ Version).wav

     Пиковый уровень 99.9 %
     Скорость извлечения 4.4 X
     Качество трека 100.0 %
     CRC теста B745D2C2
     CRC копии B745D2C2
     Трек не обнаружен в базе AccurateRip
     Копирование... OK

Трек  6

     Имя файла Z:\[HD]\- [Base House] [VA & CDM]\[Сборники]\[Flac] Va - DJ POOL Vol. 3\1\06 Klub Knights _ Tell The DJ (Terror Free Mix).wav

     Пиковый уровень 98.8 %
     Скорость извлечения 4.8 X
     Качество трека 100.0 %
     CRC теста 1682CB26
     CRC копии 1682CB26
     Трек не обнаружен в базе AccurateRip
     Копирование... OK

Трек  7

     Имя файла Z:\[HD]\- [Base House] [VA & CDM]\[Сборники]\[Flac] Va - DJ POOL Vol. 3\1\07 Yoda _ November (Club Mix).wav

     Пиковый уровень 89.3 %
     Скорость извлечения 4.7 X
     Качество трека 100.0 %
     CRC теста 3769804C
     CRC копии 3769804C
     Трек не обнаружен в базе AccurateRip
     Копирование... OK

Трек  8

     Имя файла Z:\[HD]\- [Base House] [VA & CDM]\[Сборники]\[Flac] Va - DJ POOL Vol. 3\1\08 DJ Mickey _ Sonic Breaker (Club Mix).wav

     Пиковый уровень 98.8 %
     Скорость извлечения 5.3 X
     Качество трека 100.0 %
     CRC теста D1B10F11
     CRC копии D1B10F11
     Трек не обнаружен в базе AccurateRip
     Копирование... OK

Трек  9

     Имя файла Z:\[HD]\- [Base House] [VA & CDM]\[Сборники]\[Flac] Va - DJ POOL Vol. 3\1\09 Mazza & Co. _ Bitter Sweet Symphony (Radio Version).wav

     Пиковый уровень 94.4 %
     Скорость извлечения 4.9 X
     Качество трека 100.0 %
     CRC теста DABEBB63
     CRC копии DABEBB63
     Трек не обнаружен в базе AccurateRip
     Копирование... OK

Трек 10

     Имя файла Z:\[HD]\- [Base House] [VA & CDM]\[Сборники]\[Flac] Va - DJ POOL Vol. 3\1\10 Fast NY Fast _ Fast NY Fast (Bossanova Mix).wav

     Пиковый уровень 99.4 %
     Скорость извлечения 5.6 X
     Качество трека 100.0 %
     CRC теста 7648FF49
     CRC копии 7648FF49
     Трек не обнаружен в базе AccurateRip
     Копирование... OK

Трек 11

     Имя файла Z:\[HD]\- [Base House] [VA & CDM]\[Сборники]\[Flac] Va - DJ POOL Vol. 3\1\11 Silvio Ecomo _ Uprising (2 Play Club Mix).wav

     Пиковый уровень 98.0 %
     Скорость извлечения 5.9 X
     Качество трека 100.0 %
     CRC теста 94121843
     CRC копии 94121843
     Трек не обнаружен в базе AccurateRip
     Копирование... OK

Трек 12

     Имя файла Z:\[HD]\- [Base House] [VA & CDM]\[Сборники]\[Flac] Va - DJ POOL Vol. 3\1\12 Enemy Mine _ Who Needs Enemies (Kosmonova Remix).wav

     Пиковый уровень 98.0 %
     Скорость извлечения 6.0 X
     Качество трека 100.0 %
     CRC теста FE5167A9
     CRC копии FE5167A9
     Трек не обнаружен в базе AccurateRip
     Копирование... OK

Ни одного трека нет в базе AccurateRip

Ошибок не произошло

Конец отчёта

---- CUETools DB Plugin V2.1.3

[CTDB TOCID: FOOl9xqkSI.Jd8OFLYW0W8v8SYs-] disk not present in database, Submit result: FOOl9xqkSI.Jd8OFLYW0W8v8SYs- has been uploaded

==== Контрольная сумма отчёта 1C1F416ED4F68613FCD453069175B6D0FF7097A105EA571FB11DF938EC22DE5D ====

Страница 1 из 1

new_topic  reply_topic

Текущее время: 06-Май 19:27
Часовой пояс: GMT + 4

m Сделано с любовью PR-CY.ru Каталог webplus.info