Вход на сайт

Имя:
Пароль:

· Забыли пароль?
logo
Портал Форум
Регистрация Вход


new_topic  reply_topic

  (Trance) Various ‎– Promo Only Progressive Club: February 2000, (CD, Compilation, Promo), FLAC (tracks + .cue), lossless

pic
Год выпуска: 2000
Страна: Uk
Производитель: Uk
Жанр: Trance
Номер #: Promo Only (UK) ‎– POPC FEB 00
Тип издания: сборник
Аудио кодек: FLAC
Тип рипа: (tracks + .cue)
Битрейт аудио: lossless

Треклист:

01) Chakra – Home (Space Brothers Mix)
02) Starparty – I'm In Love (Ferry Corsten & Robert Smit Remix)
03) Giorgio Moroder – The Chase (Paul Oakenfold Remix)
04) Starfighter – Apache (Hi-Gate Mix)
05) Technique – Sun Is Shining (Mekka Vs Trouser Enthusiasts Mix)
06) Fierce – Sweet Love (Trouser Enthusiasts Mix)
07) Hi-Gate – Pitchin' (In Every Direction) (Original Mix)
08) Tomski – Love Will Come (Original Mix)
09) Delirium – Heaven's Earth (Matt Darey Mix)


Доп. информация: Unmixed, немиксованный сборник (все треки полные).
_______________________________________________
http://www.discogs.com/Various-Promo-Only-Progressive-Club-February-2000/release/1221078

Код:

Exact Audio Copy V1.0 beta 3 from 29. August 2011

EAC extraction logfile from 21. January 2012, 18:22

Various / Promo Only Progressive Club - February 2000

Used drive  : Optiarc DVDRWBD BC-5540H   Adapter: 0  ID: 1

Read mode               : Secure
Utilize accurate stream : Yes
Defeat audio cache      : Yes
Make use of C2 pointers : No

Read offset correction                      : 48
Overread into Lead-In and Lead-Out          : No
Fill up missing offset samples with silence : Yes
Delete leading and trailing silent blocks   : No
Null samples used in CRC calculations       : Yes
Used interface                              : Native Win32 interface for Win NT & 2000
Gap handling                                : Appended to previous track

Used output format              : User Defined Encoder
Selected bitrate                : 1024 kBit/s
Quality                         : High
Add ID3 tag                     : No
Command line compressor         : C:\Program Files (x86)\Exact Audio Copy\Flac\flac.exe
Additional command line options : -8 -V -T "ARTIST=%artist%" -T "TITLE=%title%" -T "ALBUM=%albumtitle%" -T "DATE=%year%" -T "TRACKNUMBER=%tracknr%" -T "GENRE=%genre%" -T "PERFORMER=%albuminterpret%" -T "COMPOSER=%composer%" %haslyrics%--tag-from-file=LYRICS="%lyricsfile%"%haslyrics% -T "ALBUMARTIST=%albumartist%" -T "DISCNUMBER=%cdnumber%" -T "TOTALDISCS=%totalcds%" -T "TOTALTRACKS=%numtracks%" -T "COMMENT=%comment%" %source% -o %dest%

TOC of the extracted CD

     Track |   Start  |  Length  | Start sector | End sector
    ---------------------------------------------------------
        1  |  0:00.00 |  8:24.43 |         0    |    37842   
        2  |  8:24.43 |  7:05.38 |     37843    |    69755   
        3  | 15:30.06 | 10:28.19 |     69756    |   116874   
        4  | 25:58.25 |  7:39.23 |    116875    |   151322   
        5  | 33:37.48 |  7:21.49 |    151323    |   184446   
        6  | 40:59.22 |  8:19.13 |    184447    |   221884   
        7  | 49:18.35 |  8:23.36 |    221885    |   259645   
        8  | 57:41.71 |  8:04.72 |    259646    |   296017   
        9  | 65:46.68 |  8:17.18 |    296018    |   333310   

Track  1

     Filename C:\EACrips\Various - Promo Only Progressive Club - February 2000 (2000) [FLAC]\01 - Chakra - Home (Space Brothers Mix).wav

     Pre-gap length  0:00:02.00

     Peak level 98.8 %
     Extraction speed 11.0 X
     Track quality 100.0 %
     Test CRC BA8A81EB
     Copy CRC BA8A81EB
     Track not present in AccurateRip database
     Copy OK

Track  2

     Filename C:\EACrips\Various - Promo Only Progressive Club - February 2000 (2000) [FLAC]\02 - Starparty - I'm In Love (Ferry Corsten & Robert Smit Remix).wav

     Pre-gap length  0:00:01.44

     Peak level 98.8 %
     Extraction speed 12.8 X
     Track quality 100.0 %
     Test CRC 2C579110
     Copy CRC 2C579110
     Track not present in AccurateRip database
     Copy OK

Track  3

     Filename C:\EACrips\Various - Promo Only Progressive Club - February 2000 (2000) [FLAC]\03 - Giorgio Moroder - The Chase (Paul Oakenfold Remix).wav

     Pre-gap length  0:00:01.45

     Peak level 98.8 %
     Extraction speed 14.4 X
     Track quality 100.0 %
     Test CRC 038F220B
     Copy CRC 038F220B
     Track not present in AccurateRip database
     Copy OK

Track  4

     Filename C:\EACrips\Various - Promo Only Progressive Club - February 2000 (2000) [FLAC]\04 - Starfighter - Apache (Hi-Gate Remix).wav

     Pre-gap length  0:00:01.45

     Peak level 98.8 %
     Extraction speed 15.7 X
     Track quality 100.0 %
     Test CRC 75ED92D4
     Copy CRC 75ED92D4
     Track not present in AccurateRip database
     Copy OK

Track  5

     Filename C:\EACrips\Various - Promo Only Progressive Club - February 2000 (2000) [FLAC]\05 - Technique - Sun Is Shining (Mekka vs Trouser Enthusiasts Mix).wav

     Pre-gap length  0:00:01.44

     Peak level 98.8 %
     Extraction speed 16.8 X
     Track quality 100.0 %
     Test CRC E0C4A750
     Copy CRC E0C4A750
     Track not present in AccurateRip database
     Copy OK

Track  6

     Filename C:\EACrips\Various - Promo Only Progressive Club - February 2000 (2000) [FLAC]\06 - Fierce - Sweet Love (Trouser Enthusiasts Mix).wav

     Pre-gap length  0:00:01.45

     Peak level 98.8 %
     Extraction speed 17.7 X
     Track quality 100.0 %
     Test CRC D413ACFB
     Copy CRC D413ACFB
     Track not present in AccurateRip database
     Copy OK

Track  7

     Filename C:\EACrips\Various - Promo Only Progressive Club - February 2000 (2000) [FLAC]\07 - Hi-Gate - Pitchin' (In Every Direction) (Original Mix).wav

     Pre-gap length  0:00:01.44

     Peak level 98.8 %
     Extraction speed 18.6 X
     Track quality 100.0 %
     Test CRC 0010A245
     Copy CRC 0010A245
     Track not present in AccurateRip database
     Copy OK

Track  8

     Filename C:\EACrips\Various - Promo Only Progressive Club - February 2000 (2000) [FLAC]\08 - Tomski - Love Will Come (Original Mix).wav

     Pre-gap length  0:00:01.45

     Peak level 98.8 %
     Extraction speed 19.4 X
     Track quality 100.0 %
     Test CRC DD52E9E3
     Copy CRC DD52E9E3
     Track not present in AccurateRip database
     Copy OK

Track  9

     Filename C:\EACrips\Various - Promo Only Progressive Club - February 2000 (2000) [FLAC]\09 - Delerium - Heaven & Earth (Matt Darey Mix).wav

     Pre-gap length  0:00:01.45

     Peak level 98.8 %
     Extraction speed 20.4 X
     Track quality 100.0 %
     Test CRC 5DA635F9
     Copy CRC 5DA635F9
     Track not present in AccurateRip database
     Copy OK

None of the tracks are present in the AccurateRip database

No errors occurred

End of status report

---- CUETools DB Plugin V2.1.3

[CTDB TOCID: ZE9zUrTMfkRiwD90UA3e4U5OoEI-] disk not present in database, Submit result: ZE9zUrTMfkRiwD90UA3e4U5OoEI- has been uploaded

==== Log checksum CB910C722C58C166CD91C1D549E4E87969DF303A17B64F3F438CF0316B706780 ====
Пожалуйста, как я могу скачать этот?

booble писал(а):

Пожалуйста, как я могу скачать этот?
- Могу обменять рип этого диска, если Вы мне предложите рип Диска http://www.discogs.com/Filo-Playa/release/2464103 - при помощи EAC - потреково - согласно правил.
У меня нет или не могли получить его, но у меня есть много другой музыки, если вы заинтересованы ... синглы и сборники Trance, Progressive, дома ... не с 1990 до сих пор. Mp3 и FLAC.

На самом деле просто глядя два трека этой компиляции.

Извините за мой перевод Google

Страница 1 из 1

new_topic  reply_topic

Текущее время: 25-Июн 02:03
Часовой пояс: GMT + 4

m Сделано с любовью PR-CY.ru Каталог webplus.info