Вход на сайт

Имя:
Пароль:

· Забыли пароль?
logo
Портал Форум
Регистрация Вход


new_topic  reply_topic

  (House) Various ‎– Dimas & Martinez Presents MD: The Collection 1997, WAV (tracks + .cue), lossless

pic
Год выпуска: 1997
Страна: Spain
Производитель: MD Records
Жанр: House
Номер #: MDCD 001
Тип издания: сборник
Аудио кодек: WAV
Тип рипа: (tracks + .cue)
Битрейт аудио: lossless

Треклист: CD-01:

01) BCA – Feeling
02) Boston* – Happy People
03) Nature – Blue Ocean
04) Dimas & Martinez – All Night
05) Nitro (4) – Le Plaisir
06) Committee – Ripping It Up
07) T.U.S.O.M. – Flamenco Trip
08) Polaris (2) – Polaris
09) VibeMan Part 3* – Sax-O-Vibe
10) Bosstune – My Thang
11) Nature – Drums & Basics


Треклист: CD-02:

01) Zentral – Que Idea (Rmx 97)
02) King Of House, The – Bonus
03) Control (5) – Representative
04) Vibeman – The Vibe E.P.
05) Global Mission – Get It Righ
06) Committee – Trance Line
07) Kenya (2) – Black & White
08) Zentral – Que Idea (Original)
09) Committee – Sun Glasses
10) Control (5) – Friction
11) King Of House, The – The Bird
12) Committee – Welcome
13) Zentral – On Board
14) Hyper-Active – Guitar Active


Доп. информация: 2 × CD, Compilation, Digipak (UnMixed - Full Tracks)
_______________________________________________
http://www.discogs.com/Various-Dimas-Martinez-Presents-MD-The-Collection/release/1502649

Код:

Exact Audio Copy V1.0 beta 3 from 29. August 2011

Отчёт EAC об извлечении, выполненном 16. июня 2013, 19:25

Various ‎– Dimas & Martinez Presents / MD: The Collection 1997 (CD-01)

Дисковод: TSSTcorpBDDVDW SE-506AB   Adapter: 2  ID: 0

Режим чтения                 : Достоверность
Использование точного потока : Да
Отключение кэша аудио        : Да
Использование указателей C2  : Нет

Коррекция смещения при чтении                     : 6
Способность читать области Lead-in и Lead-out     : Нет
Заполнение пропущенных сэмплов тишиной            : Да
Удаление блоков с тишиной в начале и конце        : Нет
При вычислениях CRC использовались нулевые сэмплы : Да
Интерфейс                                         : Встроенный Win32-интерфейс для Win NT/2000
Обработка зазоров                                 : Добавлено к предыдущему треку

Выходной формат : Внутренние WAV-операции
Формат сэмплов  : 44.100 Гц; 16 бит; стерео

TOC извлечённого CD

     Трек |   Старт  | Длительность | Начальный сектор | Конечный сектор
    ---------------------------------------------------------------------
       1  |  0:00.00 |    6:57.44   |           0      |      31318     
       2  |  6:57.44 |    5:22.03   |       31319      |      55471     
       3  | 12:19.47 |    6:39.21   |       55472      |      85417     
       4  | 18:58.68 |    6:50.25   |       85418      |     116192     
       5  | 25:49.18 |    8:53.44   |      116193      |     156211     
       6  | 34:42.62 |    7:14.27   |      156212      |     188788     
       7  | 41:57.14 |    5:35.00   |      188789      |     213913     
       8  | 47:32.14 |    5:59.43   |      213914      |     240881     
       9  | 53:31.57 |    6:48.50   |      240882      |     271531     
      10  | 60:20.32 |    5:33.61   |      271532      |     296567     
      11  | 65:54.18 |    6:56.22   |      296568      |     327789     

Трек  1

     Имя файла C:\2\[Flac] MD - Collection (various) 1997\CD - 01\01 Трек01.wav

     Длина предзазора  0:00:02.00

     Пиковый уровень 96.6 %
     Скорость извлечения 2.2 X
     Качество трека 100.0 %
     CRC теста BCD6B74E
     CRC копии BCD6B74E
     Трек не обнаружен в базе AccurateRip
     Копирование... OK

Трек  2

     Имя файла C:\2\[Flac] MD - Collection (various) 1997\CD - 01\02 Трек02.wav

     Длина предзазора  0:00:01.74

     Пиковый уровень 90.2 %
     Скорость извлечения 2.6 X
     Качество трека 99.9 %
     CRC теста C728706E
     CRC копии C728706E
     Трек не обнаружен в базе AccurateRip
     Копирование... OK

Трек  3

     Имя файла C:\2\[Flac] MD - Collection (various) 1997\CD - 01\03 Трек03.wav

     Длина предзазора  0:00:02.00

     Пиковый уровень 95.5 %
     Скорость извлечения 3.6 X
     Качество трека 100.0 %
     CRC теста 26CC2044
     CRC копии 26CC2044
     Трек не обнаружен в базе AccurateRip
     Копирование... OK

Трек  4

     Имя файла C:\2\[Flac] MD - Collection (various) 1997\CD - 01\04 Трек04.wav

     Длина предзазора  0:00:02.00

     Пиковый уровень 100.0 %
     Скорость извлечения 2.8 X
     Качество трека 99.9 %
     CRC теста F1AB203E
     CRC копии F1AB203E
     Трек не обнаружен в базе AccurateRip
     Копирование... OK

Трек  5

     Имя файла C:\2\[Flac] MD - Collection (various) 1997\CD - 01\05 Трек05.wav

     Длина предзазора  0:00:02.00

     Пиковый уровень 100.0 %
     Скорость извлечения 4.4 X
     Качество трека 100.0 %
     CRC теста 41F4AC5F
     CRC копии 41F4AC5F
     Трек не обнаружен в базе AccurateRip
     Копирование... OK

Трек  6

     Имя файла C:\2\[Flac] MD - Collection (various) 1997\CD - 01\06 Трек06.wav

     Длина предзазора  0:00:02.00

     Пиковый уровень 94.4 %
     Скорость извлечения 2.3 X
     Качество трека 100.0 %
     CRC теста CC8A4973
     CRC копии CC8A4973
     Трек не обнаружен в базе AccurateRip
     Копирование... OK

Трек  7

     Имя файла C:\2\[Flac] MD - Collection (various) 1997\CD - 01\07 Трек07.wav

     Длина предзазора  0:00:02.00

     Пиковый уровень 100.0 %
     Скорость извлечения 3.4 X
     Качество трека 99.9 %
     CRC теста 4EC83BBB
     CRC копии 4EC83BBB
     Трек не обнаружен в базе AccurateRip
     Копирование... OK

Трек  8

     Имя файла C:\2\[Flac] MD - Collection (various) 1997\CD - 01\08 Трек08.wav

     Длина предзазора  0:00:02.00

     Пиковый уровень 100.0 %
     Скорость извлечения 2.5 X
     Качество трека 100.0 %
     CRC теста B52B69F0
     CRC копии B52B69F0
     Трек не обнаружен в базе AccurateRip
     Копирование... OK

Трек  9

     Имя файла C:\2\[Flac] MD - Collection (various) 1997\CD - 01\09 Трек09.wav

     Длина предзазора  0:00:02.00

     Пиковый уровень 94.4 %
     Скорость извлечения 4.6 X
     Качество трека 99.9 %
     CRC теста A7C7A4DB
     CRC копии A7C7A4DB
     Трек не обнаружен в базе AccurateRip
     Копирование... OK

Трек 10

     Имя файла C:\2\[Flac] MD - Collection (various) 1997\CD - 01\10 Трек10.wav

     Длина предзазора  0:00:02.00

     Пиковый уровень 100.0 %
     Скорость извлечения 5.4 X
     Качество трека 100.0 %
     CRC теста 4CBEB1E3
     CRC копии 4CBEB1E3
     Трек не обнаружен в базе AccurateRip
     Копирование... OK

Трек 11

     Имя файла C:\2\[Flac] MD - Collection (various) 1997\CD - 01\11 Трек11.wav

     Длина предзазора  0:00:02.00

     Пиковый уровень 89.1 %
     Скорость извлечения 4.8 X
     Качество трека 100.0 %
     CRC теста 0F2897AB
     CRC копии 0F2897AB
     Трек не обнаружен в базе AccurateRip
     Копирование... OK

Ни одного трека нет в базе AccurateRip

Ошибок не произошло

Конец отчёта

---- CUETools DB Plugin V2.1.3

[CTDB TOCID: ZbHI4HctXoNiJ3O7kTYeyE4bKko-] database access error: Невозможно разрешить удаленное имя: 'db.cuetools.net'

==== Контрольная сумма отчёта A9D53614B8FE46A63112F69AD2FD2218D7EB145569FDE53E077B6357A61CEFF7 ====

Код:

Exact Audio Copy V1.0 beta 3 from 29. August 2011

Отчёт EAC об извлечении, выполненном 16. июня 2013, 20:43

Various ‎– Dimas & Martinez Presents / MD: The Collection 1997 (CD-02)

Дисковод: TSSTcorpBDDVDW SE-506AB   Adapter: 2  ID: 0

Режим чтения                 : Достоверность
Использование точного потока : Да
Отключение кэша аудио        : Да
Использование указателей C2  : Нет

Коррекция смещения при чтении                     : 6
Способность читать области Lead-in и Lead-out     : Нет
Заполнение пропущенных сэмплов тишиной            : Да
Удаление блоков с тишиной в начале и конце        : Нет
При вычислениях CRC использовались нулевые сэмплы : Да
Интерфейс                                         : Встроенный Win32-интерфейс для Win NT/2000
Обработка зазоров                                 : Добавлено к предыдущему треку

Выходной формат : Внутренние WAV-операции
Формат сэмплов  : 44.100 Гц; 16 бит; стерео

TOC извлечённого CD

     Трек |   Старт  | Длительность | Начальный сектор | Конечный сектор
    ---------------------------------------------------------------------
       1  |  0:00.00 |    3:30.46   |           0      |      15795     
       2  |  3:30.46 |    4:14.13   |       15796      |      34858     
       3  |  7:44.59 |    4:46.72   |       34859      |      56380     
       4  | 12:31.56 |    5:03.56   |       56381      |      79161     
       5  | 17:35.37 |    5:46.51   |       79162      |     105162     
       6  | 23:22.13 |    5:08.59   |      105163      |     128321     
       7  | 28:30.72 |    5:52.67   |      128322      |     154788     
       8  | 34:23.64 |    3:21.46   |      154789      |     169909     
       9  | 37:45.35 |    4:54.49   |      169910      |     192008     
      10  | 42:40.09 |    6:00.50   |      192009      |     219058     
      11  | 48:40.59 |    5:56.36   |      219059      |     245794     
      12  | 54:37.20 |    5:49.00   |      245795      |     271969     
      13  | 60:26.20 |    5:13.32   |      271970      |     295476     
      14  | 65:39.52 |    5:57.29   |      295477      |     322280     

Трек  1

     Имя файла C:\2\[Flac] MD - Collection (various) 1997\CD - 02\01 Трек01.wav

     Длина предзазора  0:00:02.00

     Пиковый уровень 99.9 %
     Скорость извлечения 1.9 X
     Качество трека 100.0 %
     CRC теста E16208C0
     CRC копии E16208C0
     Трек не обнаружен в базе AccurateRip
     Копирование... OK

Трек  2

     Имя файла C:\2\[Flac] MD - Collection (various) 1997\CD - 02\02 Трек02.wav

     Длина предзазора  0:00:02.00

     Пиковый уровень 100.0 %
     Скорость извлечения 2.0 X
     Качество трека 100.0 %
     CRC теста 76D459E5
     CRC копии 76D459E5
     Трек не обнаружен в базе AccurateRip
     Копирование... OK

Трек  3

     Имя файла C:\2\[Flac] MD - Collection (various) 1997\CD - 02\03 Трек03.wav

     Длина предзазора  0:00:02.00

     Пиковый уровень 100.0 %
     Скорость извлечения 2.3 X
     Качество трека 100.0 %
     CRC теста AA9019D5
     CRC копии AA9019D5
     Трек не обнаружен в базе AccurateRip
     Копирование... OK

Трек  4

     Имя файла C:\2\[Flac] MD - Collection (various) 1997\CD - 02\04 Трек04.wav

     Длина предзазора  0:00:02.00

     Пиковый уровень 100.0 %
     Скорость извлечения 2.3 X
     Качество трека 99.9 %
     CRC теста 27BD241C
     CRC копии 27BD241C
     Трек не обнаружен в базе AccurateRip
     Копирование... OK

Трек  5

     Имя файла C:\2\[Flac] MD - Collection (various) 1997\CD - 02\05 Трек05.wav

     Длина предзазора  0:00:02.00

     Пиковый уровень 99.2 %
     Скорость извлечения 3.0 X
     Качество трека 100.0 %
     CRC теста 071C0B29
     CRC копии 071C0B29
     Трек не обнаружен в базе AccurateRip
     Копирование... OK

Трек  6

     Имя файла C:\2\[Flac] MD - Collection (various) 1997\CD - 02\06 Трек06.wav

     Длина предзазора  0:00:02.00

     Пиковый уровень 100.0 %
     Скорость извлечения 2.5 X
     Качество трека 99.9 %
     CRC теста E6F268AB
     CRC копии E6F268AB
     Трек не обнаружен в базе AccurateRip
     Копирование... OK

Трек  7

     Имя файла C:\2\[Flac] MD - Collection (various) 1997\CD - 02\07 Трек07.wav

     Длина предзазора  0:00:02.00

     Пиковый уровень 94.4 %
     Скорость извлечения 3.6 X
     Качество трека 99.9 %
     CRC теста F82BCD62
     CRC копии F82BCD62
     Трек не обнаружен в базе AccurateRip
     Копирование... OK

Трек  8

     Имя файла C:\2\[Flac] MD - Collection (various) 1997\CD - 02\08 Трек08.wav

     Длина предзазора  0:00:02.00

     Пиковый уровень 99.9 %
     Скорость извлечения 1.8 X
     Качество трека 99.9 %
     CRC теста F28FD597
     CRC копии F28FD597
     Трек не обнаружен в базе AccurateRip
     Копирование... OK

Трек  9

     Имя файла C:\2\[Flac] MD - Collection (various) 1997\CD - 02\09 Трек09.wav

     Длина предзазора  0:00:02.00

     Пиковый уровень 94.4 %
     Скорость извлечения 0.2 X
     Качество трека 100.0 %
     CRC теста E3514D51
     CRC копии E3514D51
     Трек не обнаружен в базе AccurateRip
     Копирование... OK

Трек 10

     Имя файла C:\2\[Flac] MD - Collection (various) 1997\CD - 02\10 Трек10.wav

     Длина предзазора  0:00:02.00

     Пиковый уровень 100.0 %
     Скорость извлечения 2.2 X
     Качество трека 99.9 %
     CRC теста 476CA5B4
     CRC копии 476CA5B4
     Трек не обнаружен в базе AccurateRip
     Копирование... OK

Трек 11

     Имя файла C:\2\[Flac] MD - Collection (various) 1997\CD - 02\11 Трек11.wav

     Длина предзазора  0:00:02.00

     Пиковый уровень 100.0 %
     Скорость извлечения 3.4 X
     Качество трека 99.9 %
     CRC теста 19B38676
     CRC копии 19B38676
     Трек не обнаружен в базе AccurateRip
     Копирование... OK

Трек 12

     Имя файла C:\2\[Flac] MD - Collection (various) 1997\CD - 02\12 Трек12.wav

     Длина предзазора  0:00:02.00

     Пиковый уровень 100.0 %
     Скорость извлечения 3.6 X
     Качество трека 99.9 %
     CRC теста 1A8017AE
     CRC копии 1A8017AE
     Трек не обнаружен в базе AccurateRip
     Копирование... OK

Трек 13

     Имя файла C:\2\[Flac] MD - Collection (various) 1997\CD - 02\13 Трек13.wav

     Длина предзазора  0:00:02.00

     Пиковый уровень 94.4 %
     Скорость извлечения 4.0 X
     Качество трека 100.0 %
     CRC теста EE102ECF
     CRC копии EE102ECF
     Трек не обнаружен в базе AccurateRip
     Копирование... OK

Трек 14

     Имя файла C:\2\[Flac] MD - Collection (various) 1997\CD - 02\14 Трек14.wav

     Длина предзазора  0:00:02.00

     Пиковый уровень 100.0 %
     Скорость извлечения 3.7 X
     Качество трека 99.9 %
     CRC теста 880C9DB3
     CRC копии 880C9DB3
     Трек не обнаружен в базе AccurateRip
     Копирование... OK

Ни одного трека нет в базе AccurateRip

Ошибок не произошло

Конец отчёта

---- CUETools DB Plugin V2.1.3

[CTDB TOCID: o2dFT3QX3ax5SL51ZMUcC.o3sLQ-] database access error: Невозможно разрешить удаленное имя: 'db.cuetools.net'

==== Контрольная сумма отчёта 934811D23B0AAB9A92B33160DEAE57E6989FFFAE19BD02A22938424FE19802E2 ====

Страница 1 из 1

new_topic  reply_topic

Текущее время: 25-Июн 01:17
Часовой пояс: GMT + 4

m Сделано с любовью PR-CY.ru Каталог webplus.info