Вход на сайт

Имя:
Пароль:

· Забыли пароль?
logo
Портал Форум
Регистрация Вход


new_topic  reply_topic

  (Eurodance) The Real Deep Magic Dance 28 (The Magic Sound Of Deep) (Compilation, Mixed, Bootleg, Jewel Case) 10.1994, FLAC tracks, lossless

pic
Год выпуска: 1994
Страна: Germany
Производитель: Germany
Жанр: Eurodance
Лейбл - Номер по каталогу: Deep Dance – DD 00-28
Продолжительность: 01:07:45

Тип издания: сборник
Аудио кодек: FLAC
Тип рипа: tracks
Битрейт аудио: lossless

Matrix Code: DD-28
Rights Society: ACUM/BIEM

Треклист:

1. The Real Deep Magic Dance 28 (32:06)

1.1. Der Kleine Tierfreund - Intro
1.2. The Outhere Brothers - Fuck You In The Ass
1.3. ICE MC - It'a A Rainy Day
1.4. Basic Element - Leave It Behind
1.5. Whigfield - Saturday Night
1.6. Maxcess - Party Your Body (Remix #2)
1.7. Clubfish - Nimm'n
1.8. Spagna - Lady Madonna
1.9. Patric - Love Me
1.10. Spanic - Sister Golden Hair
1.11. ICE MC - It's A Rainy Day
1.12. The Outhere Brothers - Pass The Toilet Paper
1.13. B.G. The Prince Of Rap - Rock A Bit
1.14. Zoo Inc. - Lay Down
1.15. S.A.Y. - Music Takes You Higher
1.16. Dr. Alban - Let The Beat Go On
1.17. Men Behind - How Can I
1.18. Funtime Club - The Sunny Side Of Life
1.19. Loft - Wake The World
1.20. Odyssey - Into The Light
1.21. Fun Factory - Take Your Chance
1.22. Centory - Point Of No Return
1.23. Cabballero - Hymn
1.24. Odyssey - Into The Light
1.25. Clubfish - Nimm'n
1.26. The Prodigy - No Good-Start The Dance
1.27. Coco - I Had A Dream
1.28. Jesse Lee Davis - Like A Flame
1.29. Holly Johnson - Legendary Children
1.30. Bass Bumpers - Good Fun

2. ICE MC - Mega Ice-N-Green (16:28)

2.1. Think About The Way
2.2. Dark Night Rider
2.3. Take Away The Colour
2.4. Russian Roulette
2.5. It's A Rainy Day
2.6. Run Fa Cover

Featuring Samples From - Happy Weekend - Easy - O.K. Corral

3. Dance Association Vol. 1 - First Time On C.D. (19:13)

Доп. информация: D.J. Deep (настоящее имя Andreas Peine). (Bootleg)

Код:

Exact Audio Copy V1.0 beta 3 from 29. August 2011

Отчёт EAC об извлечении, выполненном 1. марта 2015, 2:30

- / The Real Deep Magic Dance 28

Дисковод: ASUS    DRW-2014L1T   Adapter: 4  ID: 0

Режим чтения                 : Достоверность
Использование точного потока : Да
Отключение кэша аудио        : Да
Использование указателей C2  : Нет

Коррекция смещения при чтении                     : 6
Способность читать области Lead-in и Lead-out     : Нет
Заполнение пропущенных сэмплов тишиной            : Да
Удаление блоков с тишиной в начале и конце        : Нет
При вычислениях CRC использовались нулевые сэмплы : Да
Интерфейс                                         : Встроенный Win32-интерфейс для Win NT/2000
Обработка зазоров                                 : Добавлено к предыдущему треку

Выходной формат          : Пользовательский кодировщик
Выбранный битрейт        : 1024 kBit/s
Качество                 : Высокий
Добавление ID3-тега      : Нет
Утилита сжатия           : C:\Program Files\Exact Audio Copy\FLAC\FLAC.EXE
Дополнительные параметры : -6 -V -T "ARTIST=%artist%" -T "TITLE=%title%" -T "ALBUM=%albumtitle%" -T "DATE=%year%" -T "TRACKNUMBER=%tracknr%" -T "GENRE=%genre%" -T "COMMENT=%comment%" -T "BAND=%albuminterpret%" -T "ALBUMARTIST=%albuminterpret%" -T "COMPOSER=%composer%" %haslyrics%--tag-from-file=LYRICS="%lyricsfile%"%haslyrics% -T "DISCNUMBER=%cdnumber%" -T "TOTALDISCS=%totalcds%" -T "TOTALTRACKS=%numtracks%" %hascover%--picture="%coverfile%"%hascover% %source% -o %dest%

TOC извлечённого CD

     Трек |   Старт  | Длительность | Начальный сектор | Конечный сектор
    ---------------------------------------------------------------------
       1  |  0:00.00 |   32:05.52   |           0      |     144426     
       2  | 32:05.52 |   16:27.55   |      144427      |     218506     
       3  | 48:33.32 |   19:12.68   |      218507      |     304974     

Трек  1

     Имя файла E:\This EAC has made Federal\ - 1 - The Real Deep Magic Dance 28.wav

     Длина предзазора  0:00:02.00

     Пиковый уровень 98.6 %
     Скорость извлечения 8.2 X
     Качество трека 100.0 %
     CRC теста 0DDF656D
     CRC копии 0DDF656D
     Точное извлечение (достоверность 2)  [2F5716F0]  (AR v1)
     Копирование... OK

Трек  2

     Имя файла E:\This EAC has made Federal\ - 2 - ICE MC - Mega Ice-N-Green.wav

     Длина предзазора  0:00:02.50

     Пиковый уровень 95.9 %
     Скорость извлечения 10.6 X
     Качество трека 100.0 %
     CRC теста B371945C
     CRC копии B371945C
     Точное извлечение (достоверность 1)  [6AF364B6]  (AR v1)
     Копирование... OK

Трек  3

     Имя файла E:\This EAC has made Federal\ - 3 - Dance Association Vol.1 - First Time On C.D..wav

     Длина предзазора  0:00:02.50

     Пиковый уровень 87.8 %
     Скорость извлечения 11.9 X
     Качество трека 100.0 %
     CRC теста 05BA1B83
     CRC копии 05BA1B83
     Точное извлечение (достоверность 1)  [D5602C12]  (AR v1)
     Копирование... OK

Все треки извлечены точно

Ошибок не произошло

Конец отчёта

==== Контрольная сумма отчёта 6BBB498EE13C6E4F94FFF01B356F9F618878CA122C9AC93BAE59DEF493491DC9 ====
ВСЕХ С НАСТУПАЮЩИМ!!!

Страница 1 из 1

new_topic  reply_topic

Текущее время: 16-Апр 16:22
Часовой пояс: GMT + 4

m Сделано с любовью PR-CY.ru Каталог webplus.info